Ссылка на приватное зеркало нашего сайта всего за 1$. Внимание количество ограничено!!!

2 сезон

iTunes

1 сезон

1

iTunes

iTunes

iTunes

1 сезон

RePack

30

ИГРА 18+

pack

ВАЖНО

!!Акция!!

Alien_RageХит недели

RePack

MK11
pack

Забери бонус

RePack

jed

!!Акция!!

Alien_Rage

RePack

fifa19

RePack

Assassins Creed: Odyssey

RePack

NEED FOR SPEED™ PAYBACK

4 сезон

9 сезон

Бесстыжие 9 сезон

Все сериалы

все сериалы на PB.wtf

RePack

FAR CRY 5
  

Клоун / Clown (Джонатан Уоттс / Jon Watts) [2014, США, Канада, ужасы, драма, WEB-DLRip, Любительский (одноголосый)] pb.wtf

Клоун через торрент pb.wtf

Размер: 1.31 GB | Добавлен: 5 лет 7 мес. назад | Торрент скачан:272 раза
Скачать  

04-03-2015 23:22 Клоун Скачать торрент  

Клоун / Clown

Год выпуска: 2014
Страна: США, Канада
Жанр: ужасы, драма
Продолжительность: 01:39:18
Перевод: Любительский (одноголосый)
Субтитры: Отсутствует
Режиссер: Джонатан Уоттс / Jon Watts
В ролях:


Петер Стормаре (Karlsson), Элай Рот (Frowny the Clown), Лаура Аллен (Meg), Элизабет Уитмер (Denise), Кристиан Дистефано (Jack), Джон МакДональд (Helpful Motorist), Джулия А. Лонг (ER patient), Чак Шамата (Walt), Сара Схеффер (Costume Shop Employee), Энди Пауэрс (Kent), Клаудия Журт (Panicked Parent), Джоди Ларратт (Mother)

Описание:
Любящий отец специально для дня рождения сына находит костюм клоуна, но он и не подозревал, что на этот костюм наложено проклятье, которое превращает его владельца в убийцу.

Рейтинг:

MPAA: R - Лицам до 17 лет обязательно присутствие взрослого
Качество: WEB-DLRip
Формат: AVI
Видео кодек:XviD
Аудио кодек:AC3
Видео: XviD, 720x400 (16:9), 1613 kbps, 23,976 fps, 0,234 bpp
Аудио: AC3 / 2.0 / 48 kHz / 192 kbps / 16 bit - Любительский одноголосый [ den904]

General
Complete name : D:\_uTorrent_\Клоун.avi
Format : AVI
Format/Info : Audio Video Interleave
File size : 1.31 GiB
Duration : 1h 39mn
Overall bit rate : 1 889 Kbps
Writing application : VirtualDubModRus 1.5.10.2 (build 2542/release)
Writing library : VirtualDubMod build 2542/release

Video
ID : 0
Format : MPEG-4 Visual
Format profile : Advanced Simple@L5
Format settings, BVOP : 2
Format settings, QPel : No
Format settings, GMC : No warppoints
Format settings, Matrix : Default (H.263)
Muxing mode : Packed bitstream
Codec ID : XVID
Codec ID/Hint : XviD
Duration : 1h 39mn
Bit rate : 1 613 Kbps
Width : 720 pixels
Height : 400 pixels
Display aspect ratio : 16:9
Frame rate : 23.976 fps
Color space : YUV
Chroma subsampling : 4:2:0
Bit depth : 8 bits
Scan type : Progressive
Compression mode : Lossy
Bits/(Pixel*Frame) : 0.234
Stream size : 1.12 GiB (85%)
Writing library : XviD 66

Audio
ID : 1
Format : AC-3
Format/Info : Audio Coding 3
Mode extension : CM (complete main)
Codec ID : 2000
Duration : 1h 39mn
Bit rate mode : Constant
Bit rate : 192 Kbps
Channel(s) : 2 channels
Channel positions : Front: L R
Sampling rate : 48.0 KHz
Bit depth : 16 bits
Compression mode : Lossy
Stream size : 136 MiB (10%)
Alignment : Split accross interleaves

[/code]
pb.wtf



Скачать Клоун через торрент http://i67.fastpic.ru/big/2015/0305/0f/7d1a092031e02c3017a3a600c84b280f.png Скачать фильм Клоун через торрент бесплантно в хорошем качестве Описание: Любящий отец специально для дня рождения сына находит костюм клоуна, но он и не подозревал, что на этот костюм наложено ... 10 10 9
Торрент: Зарегистрирован [2015-03-04 23:22] · скачан: 272 раз
Статус: T временная
Размер: 1.31 GB
Как cкачать? Как скачать Клоун через торрент | qTorrent

% Раздел Тема Автор DL S | L
T Фильмы (мультфильмы) cо спонсором показа (Новинки AVI/MKV) [ 4.19 GB ] Клоун Восьмёрка / 8 Ball Clown [2018 WEB-DL 720p] MVO ["Синема УС"] bober100 Скачать
1 | 0
T Фильмы (мультфильмы) cо спонсором показа (Новинки AVI/MKV) [ 1.46 GB ] Клоун Восьмёрка / 8 Ball Clown [2018 WEB-DLRip] MVO ["Синема УС"] bober100 Скачать
1 | 0
T Фильмы (мультфильмы) cо спонсором показа (Новинки AVI/MKV) [ 1.37 GB ] Лицо клоуна / Clownface [2018 WEB-DLRip] MVO ["Синема УС"] bober100 Скачать
1 | 0
T Фильмы [HD 720p, 1080p] (Звук Cam, VO, DVO) [ 6.93 GB ] Клоунтергейст / Clowntergeist [2018 BDRip 1080p Любительский одноголосый Xixidok] oleg8 Скачать
1 | 0
T Релизы по Парсеру [Игры, Сериалы и Фильмы и другое...] [ 1.36 GB ] Город клоунов / ClownTown [2016 HDRip] MVO [@MUZOBOZ@] bober100 Скачать
1 | 0
Релизы по Парсеру [Игры, Сериалы и Фильмы и другое...] [ 3.49 GB ] Город клоунов / ClownTown [2016 BDRip 720p] MVO [@MUZOBOZ@] bober100 Скачать
1 | 0
Фильмы с авторской озвучкой [ 1.37 GB ] Клоун Шейкс / Shakes the Clown [1992 WEB-DLRip] [AVO] killermax2013 Скачать
1 | 0

28-11-2019 20:33  

Отключить всю рекламу на сайте

    Дорогой пользователь! Огромная просьба, поблагодарите релизера, оцените раздачу и оставьте свои комментарий, если Вы скачали Клоун через торрент бесплатно! Внесите свою лепту в развитие PiratBit!
    Комментировать посты могут только пользователи прошедшие не сложную регистрацию
    Показать сообщения:    

    Клоун через торрент
    Скачать бесплатно Клоун
    Клоун скачать торрент
    Клоун смотреть онлайн
    Cкачать фильм Клоун бесплатно
    Клоун скачать торрент в хорошем качестве
    Клоун смотреть онлайн бесплатно в хорошем качестве


    Вы не можете начинать темы
    Вы не можете отвечать на сообщения
    Вы не можете редактировать свои сообщения
    Вы не можете удалять свои сообщения
    Вы не можете голосовать в опросах
    Вы не можете прикреплять файлы к сообщениям
    Вы можете скачивать файлы