Ссылка на приватное зеркало нашего сайта всего за 1$. Внимание количество ограничено!!!

2 сезон

iTunes

1 сезон

1

2 сезон

2 сезон

iTunes

1 сезон

RePack

30

Новинка

ВАЖНО

ИГРА 18+

pack

RePack

MK11
pack

Забери бонус

RePack

jed

!!Акция!!

Alien_Rage

RePack

fifa19

RePack

Assassins Creed: Odyssey

RePack

NEED FOR SPEED™ PAYBACK

4 сезон

9 сезон

Бесстыжие 9 сезон

Все сериалы

все сериалы на PB.wtf

RePack

FAR CRY 5
  

Последователи / The Following / Сезон: 3 / серии 1-15 из 15 (Маркос Сига / Marcos Siega, Роб Шейденгланц / Rob Seidenglanz, Джошуа Батлер / Joshua Butler) [ 2014 , США , триллер, драма, криминал , WEB-DLRip ]MVO LostFilm pb.wtf

Последователи через торрент pb.wtf

Размер: 7.91 GB | Добавлен: 5 лет 6 мес. назад | Торрент скачан:167 раз
Скачать  

05-03-2015 01:42 Последователи Скачать торрент  

Последователи / The Following
«Они никогда не отпустят»


  • Год выпуска: 2015
  • Страна: США
  • Жанр: триллер, драма, криминал, детектив
  • Продолжительность: 00:44:05 (Серия)
  • Перевод: Профессиональный многоголосый закадровый) [LostFilm]
  • Режиссер: Маркос Сига / Marcos Siega, Роб Шейденгланц / Rob Seidenglanz, Джошуа Батлер / Joshua Butler
  • В ролях:

    Кевин Бейкон (Ryan Hardy), Шон Эшмор (Mike Weston), Джеймс Пьюрфой (Joe Carroll), Вэлори Керри (Emma Hill), Натали Зи (Claire Matthews), Джессика Строуп (Max Hardy), Сэм Андервуд (Luke), Нико Торторелла (Jacob Wells), Кайл Кэтлетт (Joey Matthews), Энни Пэррис (Debra Parker), Конни Нильсен (Lily Gray), Тиффани Бун (Mandy Lang)

  • Описание:
    Главный антигерой - Джо Кэрол, бывший профессор колледжа, который преподавал работы Эдгара По и параллельно убивал молодых женщин во славу романтизма, пока не был пойман. С того момента он провел множество часов за компьютером в тюремной библиотеке, создавая социальную сеть из убийц-подражателей, которые исполняют любую его команду. Сериал начинается с того момента, когда Кэрол спасается от смертной казни с помощью своих последователей, и ФБР, в свою очередь, приглашает Райана Харди, который схватил Джо в первый раз, для консультирования в деле его поимки.
  • Рейтинг:



  • Качество: WEB-DLRip
  • Формат: :AVI
  • Видео кодек: XviD
  • Аудио кодек: MP3
  • Видео: 720x400 (16:9), 1365 kbps, 23,976 fps, 0,198 bpp
  • Аудио: 2.0 / 48 kHz / 192 kbps /
  • Релиз от: GEKADOL

    Код:

    Внимание! Раздача ведётся путём добавления новых серий; при каждом добавлении создаётся новый торрент. Чтобы начать докачку новой серии, пользователям необходимо сделать следующее:
    (1) остановить скачивание,
    (2) удалить старый торрент у себя из клиента (старые серии удалять не надо),
    (3) скачать новый торрент и запустить его у себя в клиенте вместо старого, при этом указать клиенту путь в старую папку куда и должно происходить скачивание новых серий.
    Ваш клиент при этом должен произвести хеширование (проверку) старой папки (если не производит сам - помогите ему сделать это), и будет докачивать только те серии которых у вас ещё нет. Старые серии при этом не удаляются, а продолжают раздаваться!
    Eсли вы уже удалили старые серии, то предотвратить повторную закачку старых серий можно, отжав галочку в соответствующих местах при запуске нового торрента. По возможности, желательно не удалять старые серии как можно дольше чтобы релизёр не столько продолжал раздавать старые серии, а смог сконцентрироваться на новых.


    Код:

    General
    Complete name                            : I:\Последователи (S03)\The.Following.S03E01.rus.LostFilm.TV.avi
    Format                                   : AVI
    Format/Info                              : Audio Video Interleave
    File size                                : 494 MiB
    Duration                                 : 44mn 5s
    Overall bit rate mode                    : Variable
    Overall bit rate                         : 1 566 Kbps
    Writing application                      : Nandub v1.0rc2
    Writing library                          : Nandub build 1853/release

    Video
    ID                                       : 0
    Format                                   : MPEG-4 Visual
    Format profile                           : Advanced Simple@L5
    Format settings, BVOP                    : No
    Format settings, QPel                    : No
    Format settings, GMC                     : No warppoints
    Format settings, Matrix                  : Default (H.263)
    Codec ID                                 : XVID
    Codec ID/Hint                            : XviD
    Duration                                 : 44mn 5s
    Bit rate                                 : 1 366 Kbps
    Width                                    : 720 pixels
    Height                                   : 400 pixels
    Display aspect ratio                     : 16:9
    Frame rate                               : 23.976 fps
    Color space                              : YUV
    Chroma subsampling                       : 4:2:0
    Bit depth                                : 8 bits
    Scan type                                : Progressive
    Compression mode                         : Lossy
    Bits/(Pixel*Frame)                       : 0.198
    Stream size                              : 431 MiB (87%)
    Writing library                          : XviD 1.2.1 (UTC 2008-12-04)

    Audio
    ID                                       : 1
    Format                                   : MPEG Audio
    Format version                           : Version 1
    Format profile                           : Layer 3
    Mode                                     : Joint stereo
    Mode extension                           : MS Stereo
    Codec ID                                 : 55
    Codec ID/Hint                            : MP3
    Duration                                 : 44mn 5s
    Bit rate mode                            : Variable
    Bit rate                                 : 192 Kbps
    Channel(s)                               : 2 channels
    Sampling rate                            : 48.0 KHz
    Compression mode                         : Lossy
    Stream size                              : 59.2 MiB (12%)
    Alignment                                : Aligned on interleaves
    Interleave, duration                     : 24 ms (0.58 video frame)
    Interleave, preload duration             : 470 ms
    Writing library                          : LAME3.97b
    Encoding settings                        : -m j -V 4 -q 3 -lowpass 18.6 --abr 192


    Скриншоты:
    скриншот   скриншот   скриншот   скриншот   скриншот  
    скриншот  

    Раздача ведётся путём добавления новых серий. Добавлена 15 серия (23.05.2015).Просьба перекачать торрент файл.

    pb.wtf



  • Скачать Последователи через торрент http://i67.fastpic.ru/big/2015/0305/a1/0079112b6dcc3c21b90a7e184a1bc3a1.jpg Скачать фильм Последователи через торрент бесплантно в хорошем качестве Описание: Главный антигерой - Джо Кэрол, бывший профессор колледжа, который преподавал работы Эдгара По и параллельно убивал молодых женщин ... 9.4 10 15
    Info! Золотая раздача, скачанное не засчитывается.
    Торрент: Зарегистрирован [2015-05-23 04:11] · скачан: 167 раз
    Статус: √ проверено
    Размер: 7.91 GB
    Как cкачать? Как скачать Последователи через торрент | qTorrent

    % Раздел Тема Автор DL S | L
    Зарубежные сериалы [ 1.46 GB ] Последователи / The Following / Сезон: 3 / Серии: 1 из 12 [2015 ьный WEB-DL 720p] MVO DD5.1 + Original SUBs Assasinca Скачать
    1 | 0
    Зарубежные сериалы [ 19.37 GB ] Последователи / The Following / Сезон: 3 / серии 1-15 из 15 [ 2015 WEB-DLRip720 ]MVO LostFilm GEKADOL Скачать
    1 | 0

    28-11-2019 20:33  

    Отключить всю рекламу на сайте

      Дорогой пользователь! Огромная просьба, поблагодарите релизера, оцените раздачу и оставьте свои комментарий, если Вы скачали Последователи через торрент бесплатно! Внесите свою лепту в развитие PiratBit!
      Комментировать посты могут только пользователи прошедшие не сложную регистрацию
      Показать сообщения:    

      Последователи через торрент
      Скачать бесплатно Последователи
      Последователи скачать торрент
      Последователи смотреть онлайн
      Cкачать фильм Последователи бесплатно
      Последователи скачать торрент в хорошем качестве
      Последователи смотреть онлайн бесплатно в хорошем качестве


      Вы не можете начинать темы
      Вы не можете отвечать на сообщения
      Вы не можете редактировать свои сообщения
      Вы не можете удалять свои сообщения
      Вы не можете голосовать в опросах
      Вы не можете прикреплять файлы к сообщениям
      Вы можете скачивать файлы