Ссылка на приватное зеркало нашего сайта всего за 1$. Внимание количество ограничено!!!

2 сезон

iTunes

1 сезон

1

2 сезон

2 сезон

iTunes

1 сезон

RePack

30

Ultimate

ВАЖНО

ИГРА 18+

pack

RePack

MK11
pack

Забери бонус

RePack

jed

!!Акция!!

Alien_Rage

RePack

fifa19

RePack

Assassins Creed: Odyssey

RePack

NEED FOR SPEED™ PAYBACK

4 сезон

9 сезон

Бесстыжие 9 сезон

Все сериалы

все сериалы на PB.wtf

RePack

FAR CRY 5
  

Исход: Цари и боги (Ридли Скотт) [2014, Великобритания, США, Испания, боевик, драма, приключения, WEB-DLRip-AVC,] Дубляж] iTunes От R.G. PiratFilms pb.wtf

Исход: Цари и боги через торрент pb.wtf

Размер: 2.11 GB | Добавлен: 5 лет 8 мес. назад | Торрент скачан:3273 раза
Скачать  

06-03-2015 17:02 Исход: Цари и боги Скачать торрент  

Исход: Цари и боги / Exodus: Gods and Kings
«Он бросил вызов империи и изменил мир»


Год выпуска: 2014
Страна: Великобритания, США, Испания
Жанр: боевик, драма, приключения

Продолжительность: 02:30:48
Перевод: Дубляж - [Лицензия / iTunes]
Субтитры: Нет
Режиссер: Ридли Скотт / Ridley Scott
В ролях:

Кристиан Бэйл (Moses), Джоэл Эдгертон (Ramses), Джон Туртурро (Seti), Аарон Пол (Joshua), Бен Мендельсон (Viceroy Hegep), Мария Вальверде (Zipporah), Сигурни Уивер (Tuya), Бен Кингсли (Nun), Хиам Аббасс (Bithia), Исаак Эндрюс (Malak), Юэн Бремнер (Expert), Индира Варма (High Priestess)
Описание:
Ветхозаветная история о великом пророке Моисее и освобождении еврейского народа из египетского плена. Моисей появился на свет в те времена, когда фараон приказал убивать всех новорожденных мальчиков еврейского происхождения. Чтобы спасти его, мать положила малыша в корзину из тростника и отправила вниз по Нилу.
Ребенка нашла дочь фараона, которая усыновила его и растила рядом с Рамсесом - будущим фараоном. Много лет спустя, став мужчиной, Моисей бежит из Египта, а затем возвращается туда по велению Господа, чтобы избавить свой народ от оков рабства...
Мировая премьера: 3 декабря 2014
    Качество: WEB-DLRip-AVC (исх.WEB-DLRip 1080р)
    Формат: MKV
    Видео кодек: AVC
    Аудио кодек:AC3
    Видео: AVC, 1024x426 (2.40:1), 1617 kbps, 23,976 fps, 0,155 bpp
    Аудио: русский / AC3 / 5.1 / 48 kHz / 384 kbps / 16 bit ||


Код:

---[Information] [05.03.2015 8:05:14] x264 [info]: frame I:2085  Avg QP:15.56  size: 60333  PSNR Mean Y:48.11 U:52.26 V:52.74 Avg:49.07 Global:48.40
---[Information] [05.03.2015 8:05:14] x264 [info]: frame P:51356 Avg QP:19.09  size: 16373  PSNR Mean Y:45.00 U:50.95 V:51.10 Avg:46.17 Global:45.33
---[Information] [05.03.2015 8:05:14] x264 [info]: frame B:163516 Avg QP:21.23  size:  5270  PSNR Mean Y:44.65 U:51.11 V:51.40 Avg:45.88 Global:44.71
---[Information] [05.03.2015 8:05:14] x264 [info]: consecutive B-frames:  2.2%  2.5%  3.9% 58.9%  8.5% 11.5%  2.8%  5.9%  1.2%  1.4%  1.0%

Код:

General
Unique ID                                : 195115315238678119050054771365795708161 (0x92C9D7C33A06DC98B446D0385E05BD01)
Complete name                            : D:\рипы От R.G. PiratFilms\1sh0d.Car1.i.B0gi.2014.WEB DLRip-AVC.by.White Smoke.R.G.PiratFilms.mkv
Format                                   : Matroska
Format version                           : Version 4 / Version 2
File size                                : 2.11 GiB
Duration                                 : 2h 30mn
Overall bit rate                         : 2 001 Kbps
Movie name                               : 1sh0d.Car1.i.B0gi.2014.WEB DLRip-AVC.by.White Smoke.R.G.PiratFilms.mkv
Encoded date                             : UTC 2015-03-06 08:02:52
Writing application                      : mkvmerge v7.6.0 ('Garden of Dreams') 64bit built on Feb  8 2015 13:04:34
Writing library                          : libebml v1.3.1 + libmatroska v1.4.2
DURATION                                 : 02:30:13.568000000
NUMBER_OF_FRAMES                         : 281674
NUMBER_OF_BYTES                          : 432651264
_STATISTICS_WRITING_APP                  : mkvmerge v7.6.0 ('Garden of Dreams') 64bit built on Feb  8 2015 13:04:34
_STATISTICS_WRITING_DATE_UTC             : 2015-03-06 08:02:52
_STATISTICS_TAGS                         : BPS DURATION NUMBER_OF_FRAMES NUMBER_OF_BYTES
Attachment                               : Yes / Yes / Yes / Yes

Video
ID                                       : 1
Format                                   : AVC
Format/Info                              : Advanced Video Codec
Format profile                           : High@L4.1
Format settings, CABAC                   : Yes
Format settings, ReFrames                : 12 frames
Codec ID                                 : V_MPEG4/ISO/AVC
Duration                                 : 2h 30mn
Bit rate                                 : 1 617 Kbps
Width                                    : 1 024 pixels
Height                                   : 426 pixels
Display aspect ratio                     : 2.40:1
Frame rate                               : 23.976 fps
Color space                              : YUV
Chroma subsampling                       : 4:2:0
Bit depth                                : 8 bits
Scan type                                : Progressive
Bits/(Pixel*Frame)                       : 0.155
Stream size                              : 1.66 GiB (79%)
Writing library                          : x264 core 142 r2431 ac76440
Encoding settings                        : cabac=1 / ref=12 / deblock=1:-3:-3 / analyse=0x3:0x113 / me=umh / subme=9 / psy=1 / psy_rd=1.00:0.00 / mixed_ref=1 / me_range=32 / chroma_me=1 / trellis=1 / 8x8dct=1 / cqm=0 / deadzone=21,11 / fast_pskip=1 / chroma_qp_offset=-2 / threads=12 / lookahead_threads=3 / sliced_threads=0 / nr=0 / decimate=1 / interlaced=0 / bluray_compat=0 / constrained_intra=0 / bframes=10 / b_pyramid=2 / b_adapt=2 / b_bias=10 / direct=1 / weightb=0 / open_gop=0 / weightp=2 / keyint=240 / keyint_min=23 / scenecut=40 / intra_refresh=0 / rc_lookahead=40 / rc=2pass / mbtree=1 / bitrate=1617 / ratetol=1.0 / qcomp=0.65 / qpmin=0 / qpmax=69 / qpstep=4 / cplxblur=20.0 / qblur=0.5 / ip_ratio=1.40 / aq=1:1.00
Language                                 : English
Default                                  : Yes
Forced                                   : No
DURATION                                 : 02:30:48.915000000
NUMBER_OF_FRAMES                         : 216957
NUMBER_OF_BYTES                          : 1828335180
_STATISTICS_WRITING_APP                  : mkvmerge v7.6.0 ('Garden of Dreams') 64bit built on Feb  8 2015 13:04:34
_STATISTICS_WRITING_DATE_UTC             : 2015-03-06 08:02:52
_STATISTICS_TAGS                         : BPS DURATION NUMBER_OF_FRAMES NUMBER_OF_BYTES

Audio
ID                                       : 2
Format                                   : AC-3
Format/Info                              : Audio Coding 3
Mode extension                           : CM (complete main)
Codec ID                                 : A_AC3
Duration                                 : 2h 30mn
Bit rate mode                            : Constant
Bit rate                                 : 384 Kbps
Channel(s)                               : 6 channels
Channel positions                        : Front: L C R, Side: L R, LFE
Sampling rate                            : 48.0 KHz
Bit depth                                : 16 bits
Compression mode                         : Lossy
Stream size                              : 414 MiB (19%)
Language                                 : Russian
Default                                  : Yes
Forced                                   : No


Скриншоты:



pb.wtf



Скачать Исход: Цари и боги через торрент http://i1.imageban.ru/out/2015/03/06/52bc68ccf298fe46500f173ff0b0659c.jpg Скачать фильм Исход: Цари и боги через торрент бесплантно в хорошем качестве Описание: Ветхозаветная история о великом пророке Моисее и освобождении еврейского народа из египетского плена. Моисей появился на свет в ... 9.8 10 88
Info! Золотая раздача, скачанное не засчитывается.
Торрент: Зарегистрирован [2015-03-06 17:02] · скачан: 3 273 раз
Статус: √ проверено
Размер: 2.11 GB
Как cкачать? Как скачать Исход: Цари и боги через торрент | qTorrent

28-11-2019 20:33  

Отключить всю рекламу на сайте

06-03-2015 17:46 Исход: Цари и боги Скачать торрент  

Немного затянутый, но вцелом хороший фильм pb.wtf



06-03-2015 17:56 Исход: Цари и боги Скачать торрент  

где скорость!!!!!!!!!!!!!!!!!!!!!!pb.wtf



06-03-2015 18:06 Исход: Цари и боги Скачать торрент  

Вовкин писал(а):

где скорость!!!!!!!!!!!!!!!!!!!!!!

раздаёт 1 качают 63 где по твоему скорость pb.wtf



06-03-2015 21:26 Исход: Цари и боги Скачать торрент  

Вовкин писал(а):

где скорость!!!!!!!!!!!!!!!!!!!!!!

вот Скорость / Speed pb.wtf



07-03-2015 02:19 Исход: Цари и боги Скачать торрент  

Забираю. Релизеру-спасибо!pb.wtf



07-03-2015 07:53 Исход: Цари и боги Скачать торрент  

Это что же получается? Моисей - Бэтмен?pb.wtf



08-03-2015 04:41 Исход: Цари и боги Скачать торрент  

Насчет затянутых фильмов. Вы "сталкер" Тарковского смотрели? ))) Вот уж где затянул так затянул. Причем книга интересная, в детстве запоем прочитал.

Насчет Моисей-Бэтмен. Кушать-то всем хочется, и Бэйлу в том числе. А в Америке все дорого, за все надо платить, даже если ты Бэтмен. Так что не привередничайте и смотрите кинцо. Тем более за просмотр с вас деньги здесь не берут. А дареному коню как известно в зубы не смотрят.pb.wtf



08-03-2015 07:36 Исход: Цари и боги Скачать торрент  

Вот как случаются революции!!!
просто по башке мужику влетает здоровенным камнем! и все, он бог!pb.wtf



08-03-2015 15:47 Исход: Цари и боги Скачать торрент  

Я и не знал, что евреи придумали терроризм, помимо геноцида. Удивлён.pb.wtf



26-03-2015 04:06 Исход: Цари и боги Скачать торрент  

Shum4Xer писал(а):

Насчет Моисей-Бэтмен. Кушать-то всем хочется, и Бэйлу в том числе. А в Америке все дорого, за все надо платить, даже если ты Бэтмен. Так что не привередничайте и смотрите кинцо. Тем более за просмотр с вас деньги здесь не берут. А дареному коню как известно в зубы не смотрят.

Вообще то, это был сарказм. Но если так все сложно, тогда Моисей не Бетмен, Моисей получается Юм Юм из Мио, мой Мио.pb.wtf



    Дорогой пользователь! Огромная просьба, поблагодарите релизера, оцените раздачу и оставьте свои комментарий, если Вы скачали Исход: Цари и боги через торрент бесплатно! Внесите свою лепту в развитие PiratBit!
    Комментировать посты могут только пользователи прошедшие не сложную регистрацию
    Показать сообщения:    

    Исход: Цари и боги через торрент
    Скачать бесплатно Исход: Цари и боги
    Исход: Цари и боги скачать торрент
    Исход: Цари и боги смотреть онлайн
    Cкачать фильм Исход: Цари и боги бесплатно
    Исход: Цари и боги скачать торрент в хорошем качестве
    Исход: Цари и боги смотреть онлайн бесплатно в хорошем качестве


    Вы не можете начинать темы
    Вы не можете отвечать на сообщения
    Вы не можете редактировать свои сообщения
    Вы не можете удалять свои сообщения
    Вы не можете голосовать в опросах
    Вы не можете прикреплять файлы к сообщениям
    Вы можете скачивать файлы