Ссылка на приватное зеркало нашего сайта всего за 1$. Внимание количество ограничено!!!

2 сезон

iTunes

1 сезон

1

2 сезон

2 сезон

iTunes

1 сезон

RePack

30

Новинка

ВАЖНО

ИГРА 18+

pack

RePack

MK11
pack

Забери бонус

RePack

jed

!!Акция!!

Alien_Rage

RePack

fifa19

RePack

Assassins Creed: Odyssey

RePack

NEED FOR SPEED™ PAYBACK

4 сезон

9 сезон

Бесстыжие 9 сезон

Все сериалы

все сериалы на PB.wtf

RePack

FAR CRY 5
  

Раскопки / Dig / Сезон: 1 / Серии 1-10 из 10 (С.Дж. Кларксон / S.J. Clarkson) [2015, США, Драма, HDTVRip 720р, MVO] [NewStudio] pb.wtf

Раскопки через торрент pb.wtf

Размер: 14.79 GB | Добавлен: 5 лет 6 мес. назад | Торрент скачан:56 раз
Скачать  

07-03-2015 02:28 Раскопки Скачать торрент  

Раскопки / Dig


  • Год выпуска: 2015
  • Страна: США
  • Жанр: Драма
  • Продолжительность: 01:05:48 (Серия)
  • Перевод: Профессиональный многоголосый закадровый) [NewStudio]

  • Субтитры: русские,
  • Режиссер: С.Дж. Кларксон / S.J. Clarkson
  • В ролях:

    Яэль Эйтан (Liat), Зен МакГрат (Josh), Ори Феффер (Detective Golan Cohen), Гай Селник (Avram), Брайан Барела (Marine), Ричард Бил (Israeli Ambassador), Дерек Блэкни (Party goer), Рич Чавез (Israeli Secret Servise (Driver)), Дэвид Костабайл (Ted Billingham), Steven Diller (Hasidic Jew), Jetto Dorsainville (Marine), Элизабет М. Кэллмен (U.S. Consulate Employee)

  • Описание:
    Питер, агент ФБР, базирующийся в Иерусалиме, в процессе расследования убийства молодой женщины-археолога открывает заговор, которому уже 2000 лет.
  • Рейтинг:



  • Качество: HDTVRip 720р
  • Формат: :MKV
  • Видео кодек: AVC
  • Аудио кодек: AC3
  • Видео: 1280x720 (16:9), 2482 kbps, 23,976 fps, 0,112 bpp
  • Аудио №1: русский / 5.1 / 48 kHz / 384 kbps / 16 bit
  • Аудио №2: английский / 5.1 / 48 kHz / 384 kbps / 16 bit
  • Релиз от: GEKADOL

    Код:

    Внимание! Раздача ведётся путём добавления новых серий; при каждом добавлении создаётся новый торрент. Чтобы начать докачку новой серии, пользователям необходимо сделать следующее:
    (1) остановить скачивание,
    (2) удалить старый торрент у себя из клиента (старые серии удалять не надо),
    (3) скачать новый торрент и запустить его у себя в клиенте вместо старого, при этом указать клиенту путь в старую папку куда и должно происходить скачивание новых серий.
    Ваш клиент при этом должен произвести хеширование (проверку) старой папки (если не производит сам - помогите ему сделать это), и будет докачивать только те серии которых у вас ещё нет. Старые серии при этом не удаляются, а продолжают раздаваться!
    Eсли вы уже удалили старые серии, то предотвратить повторную закачку старых серий можно, отжав галочку в соответствующих местах при запуске нового торрента. По возможности, желательно не удалять старые серии как можно дольше чтобы релизёр не столько продолжал раздавать старые серии, а смог сконцентрироваться на новых.


    Код:

    General
    Unique ID                                : 230105927778291924417873721124035208145 (0xAD1CCA27BE1242B4957A537DB543A3D1)
    Complete name                            : I:\Dig.s01e01.HDTV.720p.NewStudio.TV.mkv
    Format                                   : Matroska
    Format version                           : Version 2
    File size                                : 1.52 GiB
    Duration                                 : 1h 5mn
    Overall bit rate                         : 3 317 Kbps
    Encoded date                             : UTC 2015-03-06 22:44:50
    Writing application                      : mkvmerge v2.9.9 ('Tutu') built on Nov 25 2009 21:13:32
    Writing library                          : libebml v0.7.9 + libmatroska v0.8.1

    Video
    ID                                       : 1
    Format                                   : AVC
    Format/Info                              : Advanced Video Codec
    Format profile                           : High@L4.1
    Format settings, CABAC                   : Yes
    Format settings, ReFrames                : 5 frames
    Codec ID                                 : V_MPEG4/ISO/AVC
    Duration                                 : 1h 5mn
    Bit rate                                 : 2 483 Kbps
    Width                                    : 1 280 pixels
    Height                                   : 720 pixels
    Display aspect ratio                     : 16:9
    Frame rate                               : 23.976 fps
    Color space                              : YUV
    Chroma subsampling                       : 4:2:0
    Bit depth                                : 8 bits
    Scan type                                : Progressive
    Bits/(Pixel*Frame)                       : 0.112
    Stream size                              : 1.14 GiB (75%)
    Writing library                          : x264 core 144 r2525 40bb568
    Encoding settings                        : cabac=1 / ref=5 / deblock=1:0:0 / analyse=0x3:0x113 / me=umh / subme=8 / psy=1 / psy_rd=1.00:0.00 / mixed_ref=1 / me_range=16 / chroma_me=1 / trellis=1 / 8x8dct=1 / cqm=0 / deadzone=21,11 / fast_pskip=1 / chroma_qp_offset=-2 / threads=12 / lookahead_threads=3 / sliced_threads=0 / nr=0 / decimate=1 / interlaced=0 / bluray_compat=0 / constrained_intra=0 / bframes=5 / b_pyramid=2 / b_adapt=2 / b_bias=0 / direct=3 / weightb=1 / open_gop=0 / weightp=2 / keyint=250 / keyint_min=23 / scenecut=40 / intra_refresh=0 / rc_lookahead=50 / rc=crf / mbtree=1 / crf=18.0 / qcomp=0.60 / qpmin=0 / qpmax=69 / qpstep=4 / ip_ratio=1.40 / aq=1:1.00
    Default                                  : No
    Forced                                   : No

    Audio #1
    ID                                       : 2
    Format                                   : AC-3
    Format/Info                              : Audio Coding 3
    Mode extension                           : CM (complete main)
    Codec ID                                 : A_AC3
    Duration                                 : 1h 5mn
    Bit rate mode                            : Constant
    Bit rate                                 : 384 Kbps
    Channel(s)                               : 6 channels
    Channel positions                        : Front: L C R, Side: L R, LFE
    Sampling rate                            : 48.0 KHz
    Bit depth                                : 16 bits
    Compression mode                         : Lossy
    Delay relative to video                  : -83ms
    Stream size                              : 181 MiB (12%)
    Language                                 : Russian
    Default                                  : Yes
    Forced                                   : Yes

    Audio #2
    ID                                       : 3
    Format                                   : AC-3
    Format/Info                              : Audio Coding 3
    Mode extension                           : CM (complete main)
    Codec ID                                 : A_AC3
    Duration                                 : 1h 5mn
    Bit rate mode                            : Constant
    Bit rate                                 : 384 Kbps
    Channel(s)                               : 6 channels
    Channel positions                        : Front: L C R, Side: L R, LFE
    Sampling rate                            : 48.0 KHz
    Bit depth                                : 16 bits
    Compression mode                         : Lossy
    Delay relative to video                  : -83ms
    Stream size                              : 181 MiB (12%)
    Default                                  : No
    Forced                                   : No

    Text
    ID                                       : 4
    Format                                   : ASS
    Codec ID                                 : S_TEXT/ASS
    Codec ID/Info                            : Advanced Sub Station Alpha
    Compression mode                         : Lossless
    Language                                 : Russian
    Default                                  : Yes
    Forced                                   : Yes




    Скриншоты:
    скриншот   скриншот   скриншот   скриншот   скриншот  
    скриншот  

    Раздача ведётся путём добавления новых серий. Добавлена 10 серия (09.05.2015).Просьба перекачать торрент файл.

    pb.wtf



  • Скачать Раскопки через торрент http://i60.fastpic.ru/big/2015/0307/97/01e93f2bc3b72ae724dc939b3fa5bc97.png Скачать фильм Раскопки через торрент бесплантно в хорошем качестве Описание: Питер, агент ФБР, базирующийся в Иерусалиме, в процессе расследования убийства молодой женщины-археолога открывает заговор, ... 9.6 10 18
    Info! Золотая раздача, скачанное не засчитывается.
    Торрент: Зарегистрирован [2015-05-09 02:57] · скачан: 56 раз
    Статус: √ проверено
    Размер: 14.79 GB
    Как cкачать? Как скачать Раскопки через торрент | qTorrent

    % Раздел Тема Автор DL S | L
    Зарубежные сериалы [ 6.09 GB ] Раскопка / Раскопки / Dig / Сезон: 1 / Серии: 1-10 из 10 [2015 WEB-DLRip-AVC] MVO [NewStudio] bober100 Скачать
    1 | 0
    Зарубежные сериалы [ 5.52 GB ] Раскопки / Dig / Сезон: 1 / Серии 1-10 из 10 [2015 HDTVRip MVO] [NewStudio] GEKADOL Скачать
    1 | 0
    Зарубежные сериалы [ 751 MB ] Раскопки / Раскопка / Dig / Сезон: 1 / Серии: 1 из 10 [2015 WEB-DLRip] MVO + Original Assasinca Скачать
    1 | 0


    Последний раз редактировалось: GEKADOL (2015-05-09 02:57), всего редактировалось 10 раз(а)

    28-11-2019 20:33  

    Отключить всю рекламу на сайте

    14-03-2015 07:08 Раскопки Скачать торрент  

    Цитата:

    агент ФБР, базирующийся в Иерусалиме

    давно исраэль стал одним из штатов?pb.wtf



    05-04-2015 16:07 Раскопки Скачать торрент  

    Фильм понравился!Смотрю с удовольствием!pb.wtf



    12-04-2015 08:48 Раскопки Скачать торрент  

    рейтинг устрашающий!pb.wtf



    25-04-2015 02:41 Раскопки Скачать торрент  

    Себел писал(а):

    рейтинг устрашающий!

    Да уж) Но сериал хороший как по мне) pb.wtf



    05-05-2015 04:02 Раскопки Скачать торрент  

    сериал шикарный без гомосятины был бы шедевр yespb.wtf



      Дорогой пользователь! Огромная просьба, поблагодарите релизера, оцените раздачу и оставьте свои комментарий, если Вы скачали Раскопки через торрент бесплатно! Внесите свою лепту в развитие PiratBit!
      Комментировать посты могут только пользователи прошедшие не сложную регистрацию
      Показать сообщения:    

      Раскопки через торрент
      Скачать бесплатно Раскопки
      Раскопки скачать торрент
      Раскопки смотреть онлайн
      Cкачать фильм Раскопки бесплатно
      Раскопки скачать торрент в хорошем качестве
      Раскопки смотреть онлайн бесплатно в хорошем качестве


      Вы не можете начинать темы
      Вы не можете отвечать на сообщения
      Вы не можете редактировать свои сообщения
      Вы не можете удалять свои сообщения
      Вы не можете голосовать в опросах
      Вы не можете прикреплять файлы к сообщениям
      Вы можете скачивать файлы