Ссылка на приватное зеркало нашего сайта всего за 1$. Внимание количество ограничено!!!

2 сезон

iTunes

1 сезон

1

2 сезон

2 сезон

iTunes

1 сезон

RePack

30

Ultimate

ВАЖНО

ИГРА 18+

pack

RePack

MK11
pack

Забери бонус

RePack

jed

!!Акция!!

Alien_Rage

RePack

fifa19

RePack

Assassins Creed: Odyssey

RePack

NEED FOR SPEED™ PAYBACK

4 сезон

9 сезон

Бесстыжие 9 сезон

Все сериалы

все сериалы на PB.wtf

RePack

FAR CRY 5
  

Волчий зал / Wolf Hall / Сезон: 1 / Серии: 1-5 (6) (Питер Козмински) [2015, Историческая драма, HDTVRip 720p] DVO (Kiitos)+Original pb.wtf

Волчий зал через торрент pb.wtf

Размер: 4.65 GB | Добавлен: 5 лет 8 мес. назад | Торрент скачан:70 раз
Скачать  

07-03-2015 07:39 Волчий зал Скачать торрент  

Волчий зал / Вулфхолл / Wolf Hall
Год выпуска: 2015
Страна: Великобритания
Жанр: Историческая драма
Продолжительность: ~01:03:00
Перевод: Любительский двухголосый-Kiitos

Режиссер: Питер Козмински



В ролях: Марк Райленс, Дэмиан Льюис, Клэр Фой, Джонатан Прайс, Саскиа Ривз, Кейт Филипс, Бернард Хилл, Ричард Диллан, Гарри Ллойд, Дейвид Робб, Макрк Гатисс, Энтон Лессер, Черти Уэйкфилд

Описание: Англия в 1520 году на грани катастрофы. Если король умрет, не оставив наследника мужского пола, страна будет уничтожена Гражданской войной. Генрих VIII хочет аннулировать свой брак с Екатериной Арагонской, а папа и некоторые европейские монархи противостоят этому. Но в борьбу за своего короля и собственные амбиции вступает Томас Кромвель, необычный, харизматичный, амбициозный идеалист и нигилист.

Качество: HDTVRip 720p
Формат: MKV
Видео кодек: AVC
Аудио кодек: AC3
Видео: 1280x720 (16:9), 25.000 fps, 1 847 Kbps (0.080 bit/pixel)
Аудио#1: 48.0 KHz, 2 ch, 192 Kbps, CBR (Russian)
Аудио#2: 48.0 KHz, 2 ch, 192 Kbps, CBR (English)
Перевод: Miloslava, NickSt
Озвучивание: kiitos, Chertenok
Работа с видео, сведение: kiitos
General
Unique ID : 200202961511007097353145905547336494641 (0x969DB01720C512E6A2BBECD66A442E31)
Complete name : E:\Сериалы\Волчий зал\WolfHall.s01.kiitos.tv.720p.avi\WolfHall.s01e01.720p.kiitos.tv.mkv
Format : Matroska
Format version : Version 2
File size : 971 MiB
Duration : 1h 3mn
Overall bit rate : 2 134 Kbps
Encoded date : UTC 2015-01-24 13:55:03
Writing application : mkvmerge v4.2.0 ('No Talking') сборка от Jul 28 2010 18:38:23
Writing library : libebml v1.0.0 + libmatroska v1.0.0

Video
ID : 1
Format : AVC
Format/Info : Advanced Video Codec
Format profile : High@L4.1
Format settings, CABAC : Yes
Format settings, ReFrames : 5 frames
Muxing mode : Header stripping
Codec ID : V_MPEG4/ISO/AVC
Duration : 1h 3mn
Bit rate : 1 707 Kbps
Width : 1 280 pixels
Height : 720 pixels
Display aspect ratio : 16:9
Frame rate mode : Constant
Frame rate : 25.000 fps
Color space : YUV
Chroma subsampling : 4:2:0
Bit depth : 8 bits
Scan type : Progressive
Bits/(Pixel*Frame) : 0.074
Stream size : 777 MiB (80%)
Writing library : x264 core 144 r2525 40bb568
Encoding settings : cabac=1 / ref=5 / deblock=1:0:0 / analyse=0x3:0x113 / me=umh / subme=8 / psy=1 / psy_rd=1.00:0.00 / mixed_ref=1 / me_range=16 / chroma_me=1 / trellis=1 / 8x8dct=1 / cqm=0 / deadzone=21,11 / fast_pskip=1 / chroma_qp_offset=-2 / threads=12 / lookahead_threads=2 / sliced_threads=0 / nr=0 / decimate=1 / interlaced=0 / bluray_compat=0 / constrained_intra=0 / bframes=3 / b_pyramid=2 / b_adapt=2 / b_bias=0 / direct=3 / weightb=1 / open_gop=0 / weightp=2 / keyint=250 / keyint_min=25 / scenecut=40 / intra_refresh=0 / rc_lookahead=50 / rc=crf / mbtree=1 / crf=19.0 / qcomp=0.60 / qpmin=0 / qpmax=69 / qpstep=4 / ip_ratio=1.40 / aq=1:1.00
Language : English
Default : Yes
Forced : No

Audio #1
ID : 2
Format : AC-3
Format/Info : Audio Coding 3
Mode extension : CM (complete main)
Format settings, Endianness : Big
Codec ID : A_AC3
Duration : 1h 3mn
Bit rate mode : Constant
Bit rate : 192 Kbps
Channel(s) : 2 channels
Channel positions : Front: L R
Sampling rate : 48.0 KHz
Bit depth : 16 bits
Compression mode : Lossy
Stream size : 87.3 MiB (9%)
Title : kiitos.tv
Language : Russian
Default : No
Forced : Yes

Audio #2
ID : 3
Format : AC-3
Format/Info : Audio Coding 3
Mode extension : CM (complete main)
Format settings, Endianness : Big
Codec ID : A_AC3
Duration : 1h 3mn
Bit rate mode : Constant
Bit rate : 192 Kbps
Channel(s) : 2 channels
Channel positions : Front: L R
Sampling rate : 48.0 KHz
Bit depth : 16 bits
Compression mode : Lossy
Stream size : 87.3 MiB (9%)
Language : English
Default : Yes
Forced : No

Внимание! Раздача ведётся путём добавления новых серий; при каждом добавлении создётся новый торрент. Чтобы начать докачку новой серии, пользователям необходимо сделать следующее:
(1) остановить скачивание,
(2) удалить старый торрент у себя из клиента (старые серии удалять не надо),
(3) скачать новый торрент и запустить его у себя в клиенте вместо старого, при этом указать клиенту путь в старую папку куда и должно происходить скачивание новых серий.

Ваш клиент при этом должен произвести хеширование (проверку) старой папки (если не производит сам - помогите ему сделать это), и будет докачивать только те серии которых у вас ещё нет. Старые серии при этом не удаляются, а продолжают раздаваться!
Eсли вы уже удалили старые серии, то предотвратить повторную закачку старых серий можно, отжав галочку в соответсвующих местах при запуске нового торрента.
pb.wtf



Скачать Волчий зал через торрент http://pic1.kartinco.top/images/10/3ypg4.jpg Скачать фильм Волчий зал через торрент бесплантно в хорошем качестве Описание: Англия в 1520 году на грани катастрофы. Если король умрет, не оставив наследника мужского пола, страна будет уничтожена ... 9 10 4
Торрент: Зарегистрирован [2015-03-07 07:39] · скачан: 70 раз
Статус: √ проверено
Размер: 4.65 GB
Как cкачать? Как скачать Волчий зал через торрент | qTorrent

28-11-2019 20:33  

Отключить всю рекламу на сайте

07-03-2015 08:02 Волчий зал Скачать торрент  

Добавлена 5-я серия.pb.wtf



21-09-2015 07:18 Волчий зал Скачать торрент  

а когда следующая серияpb.wtf



    Дорогой пользователь! Огромная просьба, поблагодарите релизера, оцените раздачу и оставьте свои комментарий, если Вы скачали Волчий зал через торрент бесплатно! Внесите свою лепту в развитие PiratBit!
    Комментировать посты могут только пользователи прошедшие не сложную регистрацию
    Показать сообщения:    

    Волчий зал через торрент
    Скачать бесплатно Волчий зал
    Волчий зал скачать торрент
    Волчий зал смотреть онлайн
    Cкачать фильм Волчий зал бесплатно
    Волчий зал скачать торрент в хорошем качестве
    Волчий зал смотреть онлайн бесплатно в хорошем качестве


    Вы не можете начинать темы
    Вы не можете отвечать на сообщения
    Вы не можете редактировать свои сообщения
    Вы не можете удалять свои сообщения
    Вы не можете голосовать в опросах
    Вы не можете прикреплять файлы к сообщениям
    Вы можете скачивать файлы