MEGA NEWS Получи личный уникальный адрес сайта и защити себя от блокировок. Внимание количество ограничено!!!

iTunes

1+1

iTunes

мы

iTunes

1

iTunes

Чернобыль

iTunes

Ральф против интернета

Лицензия

ПШазам

Лицензия

Игра престолов

Лицензия

30
pack

ВАЖНО

!!Акция!!

Alien_RageХит недели

RePack

Resident Evil 21

ИГРА 18+

pack

RePack

Metro:Exodus

!!Акция!!

Alien_Rage

RePack

fifa19

RePack

Assassins Creed: Odyssey

RePack

NEED FOR SPEED™ PAYBACK

3 сезон

9 сезон

Бесстыжие 9 сезон

Все сериалы

все сериалы на PB.wtf

RePack

FAR CRY 5
Ребята, катастрофически не хватает 1900р. для оплаты серверов за АВГУСТ (всвязи с блокировками трафик упал в 3 раза), 1-2р., выручайте.
  

Продюсеры / Весна для Гитлера / The Producers (Мэл Брукс / Mel Brooks) [1968, комедия, BDRip] [AVO] (А. Михалев) + [Sub] (Rus) pb.wtf

Продюсеры через торрент pb.wtf

Размер: 1.46 GB | Добавлен: 4 года 7 мес. назад | Торрент скачан:54 раза
Скачать  

07-03-2015 10:39 Продюсеры Скачать торрент  


Продюсеры / Весна для Гитлера
The Producers

Год выпуска: 1968
Страна: США
Жанр: Комедия
Продолжительность: 01:29:22
Перевод: Авторский (одноголосый, закадровый) [А. Михалев]
Cубтитры: русские (неотключаемые на отсутствующие на DVD сцены)

Режиссер: Мэл Брукс / Mel Brooks

В ролях: Зеро Мостел, Джин Уайлдер, Дик Шоун, Кеннет Марс, Ли Мередит, Кристофер Хьюитт, Андреас Вуцинас, Эстель Уинвуд, Рене Тейлор, Дэвид Пэч

Описание: Неудачливый бродвейский театральный продюсер уже довольно долгое время перебивается «с хлеба на квас», старается срубить «копейку» даже в самых невероятных ситуациях… хотя, по большей части, получается так себе.
Однажды на его горизонте появляется затюканный и невзрачный бухгалтеришка, который подкидывает сумасшедшую на первый взгляд идею, реализация которой позволит им перестать думать о будущем в мрачных, апокалиптических тонах…



Исходник видео:
BDRemux 1080p
Качество видео:
BDRip
Видео кодек: XviD
Аудио кодек: AC3
Формат видео: AVI
Видео: 720х384 (1:85:1), XviD build 73 ~ 2 137 kbps, 23.976 fps, 0.32 bit/pixel
Аудио: 48 kHz, AC3 Dolby Digital, 2/0 (L,R), ~192.00 kbps avg (А. Михалев)

Автри рипа -- ochkarik1

Цитата:

Звуковая дорожка с переводом Алексея Михалева появилась благодаря vad_dikk.

Format : AVI
Format/Info : Audio Video Interleave
File size : 1.46 GiB
Duration : 1h 29mn
Overall bit rate : 2 338 Kbps
Writing application : VirtualDubMod 1.5.10.3 | www.virtualdub-fr.org || (build 2550/release)
Writing library : VirtualDubMod build 2550/release
Video
ID : 0
Format : MPEG-4 Visual
Format profile : Advanced Simple@L5
Format settings, BVOP : 1
Format settings, QPel : No
Format settings, GMC : No warppoints
Format settings, Matrix : Custom
Codec ID : XVID
Codec ID/Hint : XviD
Duration : 1h 29mn
Bit rate : 2 137 Kbps
Width : 720 pixels
Height : 384 pixels
Display aspect ratio : 1.85:1
Frame rate : 23.976 fps
Color space : YUV
Chroma subsampling : 4:2:0
Bit depth : 8 bits
Scan type : Progressive
Compression mode : Lossy
Bits/(Pixel*Frame) : 0.322
Stream size : 1.33 GiB (91%)
Writing library : XviD 73
Audio
ID : 1
Format : AC-3
Format/Info : Audio Coding 3
Mode extension : CM (complete main)
Format settings, Endianness : Big
Codec ID : 2000
Duration : 1h 29mn
Bit rate mode : Constant
Bit rate : 192 Kbps
Channel count : 2 channels
Channel positions : Front: L R
Sampling rate : 48.0 KHz
Bit depth : 16 bits
Compression mode : Lossy
Stream size : 123 MiB (8%)
Alignment : Split accross interleaves
Interleave, duration : 42 ms (1.00 video frame)
Interleave, preload duration : 500 ms
Title : Михалев (vad_dikk)
скриншот   скриншот   скриншот   скриншот   скриншот   скриншот   скриншот   скриншот   скриншот  

pb.wtf



Скачать Продюсеры через торрент http://i60.fastpic.ru/big/2015/0307/64/48673225dee03fd0a31a50d7a1501b64.jpg Скачать фильм Продюсеры через торрент бесплантно в хорошем качестве Описание: Неудачливый бродвейский театральный продюсер уже довольно долгое время перебивается «с хлеба на квас», старается срубить ... 10 10 3
Торрент: Зарегистрирован [2015-03-07 10:39] · скачан: 54 раз
Статус: √ проверено
Размер: 1.46 GB
Как cкачать? Как скачать Продюсеры через торрент | qTorrent


>> Регистрируемся здесь <<






Отзывы и комментарии о схеме читаем и пишем здесь: ---> Отзывы и комментарии о схеме

Новые благодарочки в телеграм довольных пользователей:
скриншот   скриншот   скриншот   скриншот   скриншот
    Дорогой пользователь! Огромная просьба, поблагодарите релизера, оцените раздачу и оставьте свои комментарий, если Вы скачали Продюсеры через торрент бесплатно! Внесите свою лепту в развитие PiratBit!
    Комментировать посты могут только пользователи прошедшие не сложную регистрацию
    Показать сообщения:    

    Продюсеры через торрент
    Скачать бесплатно Продюсеры
    Продюсеры скачать торрент
    Продюсеры смотреть онлайн
    Cкачать фильм Продюсеры бесплатно
    Продюсеры скачать торрент в хорошем качестве
    Продюсеры смотреть онлайн бесплатно в хорошем качестве


    Вы не можете начинать темы
    Вы не можете отвечать на сообщения
    Вы не можете редактировать свои сообщения
    Вы не можете удалять свои сообщения
    Вы не можете голосовать в опросах
    Вы не можете прикреплять файлы к сообщениям
    Вы можете скачивать файлы