новый адрес пиратбит piratbit
MEGA NEWS Получи личный уникальный адрес сайта и защити себя от блокировок. Внимание количество ограничено!!!

iTunes

1+1

iTunes

мы

iTunes

1

iTunes

Чернобыль

iTunes

Ральф против интернета

Лицензия

ПШазам

Лицензия

Игра престолов

Лицензия

30
pack

ВАЖНО

!!Акция!!

Alien_RageХит недели

RePack

Resident Evil 21

ИГРА 18+

pack

RePack

Metro:Exodus

!!Акция!!

Alien_Rage

RePack

fifa19

RePack

Assassins Creed: Odyssey

RePack

NEED FOR SPEED™ PAYBACK

3 сезон

9 сезон

Бесстыжие 9 сезон

Все сериалы

все сериалы на PB.wtf

RePack

FAR CRY 5
Ребята, катастрофически не хватает 1900р. для оплаты серверов за АВГУСТ (всвязи с блокировками трафик упал в 3 раза), 1-2р., выручайте.
  

Пьяный мастер / Jui kuen (Юэнь Воо-пин / Yuen Woo-ping) [1978, Гонконг, боевик, комедия, HDRip-AVC, [MVO ORT+Профессиональный (двухголосый закадровый) "Премьер-Видео"] pb.wtf

Пьяный мастер через торрент pb.wtf

Размер: 3 GB | Добавлен: 4 года 7 мес. назад | Торрент скачан:164 раза
Скачать  

07-03-2015 13:55 Пьяный мастер Скачать торрент  

Пьяный мастер / Jui kuen


Год выпуска: 1978
Страна: Гонконг
Жанр: боевик, комедия

Продолжительность: 01:51:11
Перевод: Профессиональный многоголосый ORT
Профессиональный (двухголосый закадровый) "Премьер-Видео"
Субтитры: Нет
Режиссер: Юэнь Воо-пин / Yuen Woo-ping
В ролях:

Джеки Чан (Wong Fei-Hung), Сиу Тиен Юэнь (Su Hua Chi / Sam Seed), Янг Ли Хванг (Thunderleg), Сиу Хунг Чэм, Чен Тиен Лунг (Bully), Чинг Чианг, Джинг Мэн Фанг (Mr. Li), Хсю Хсиа (King of Bamboo), Йинг Ли, Чао Лин, Линда Лин (Fei-hung's aunt), Дин Шек (Professor Kai-Hsien)
Описание:
Молодой Вонг Фей-Хун, будущий народный герой Китая, защитник обездоленных и обиженных, в молодости был весьма строптив и дерзок. Настолько, что отец отослал неуправляемого сына к дяде, известному мастеру кунг-фу и большому эксперту в двух вещах: распитии крепких спиртных напитков и выбивании дури из самонадеянных юнцов. Неудивительно, что герой сбегает от дяди-садиста при первой же возможности.
Увы, тут же побитый и униженный бандитом-профи, он возвращается назад к Пьяному Мастеру. Придется ему, скрипя зубами, терпеть иезуитские методы воспитания дяди, дабы потом, постигнув все тонкости боевых искусств, отомстить своему обидчику, который, к тому же, собирается убить его отца...
Мировая премьера: 5 октября 1978
Релиз by Bexram
    Качество: HDRip-AVC (исх. BDRip 1080р)
    Формат: MKV
    Видео кодек: AVC
    Аудио кодек:AC3
    Видео: AVC, 1024x428 (2.40:1), 2962 kbps, 23,976 fps, 0,282 bpp
    Аудио №1: русский Премьер-Видео / AC3 / 5.1 / 48 kHz / 448 kbps / 16 bit ||
    Аудио №2: русский ORT / AC3 / 5.1 / 48 kHz / 448 kbps / 16 bit ||


Код:

---[Information] [07.03.2015 11:11:35] x264 [info]: frame I:1125  Avg QP:16.70  size: 88852  PSNR Mean Y:45.90 U:47.97 V:50.60 Avg:46.71 Global:46.46
---[Information] [07.03.2015 11:11:35] x264 [info]: frame P:33066 Avg QP:19.98  size: 31317  PSNR Mean Y:42.52 U:45.35 V:48.32 Avg:43.48 Global:43.33
---[Information] [07.03.2015 11:11:35] x264 [info]: frame B:125769 Avg QP:22.07  size: 10612  PSNR Mean Y:41.58 U:45.16 V:48.43 Avg:42.67 Global:42.46
---[Information] [07.03.2015 11:11:35] x264 [info]: consecutive B-frames:  1.8%  3.0%  5.6% 22.9% 12.9% 26.9%  7.1% 14.9%  2.3%  1.7%  0.7%

General
Unique ID                                : 176797954291793749019093970749963808355 (0x85020C2438B82437BB5BCA8FEA6AAE63)
Complete name                            : C:\Установочники игр\Пьяный мастер 1\Pyanii.Master.HDRip-AVC.by.Bexram.mkv
Format                                   : Matroska
Format version                           : Version 4 / Version 2
File size                                : 3.00 GiB
Duration                                 : 1h 51mn
Overall bit rate                         : 3 860 Kbps
Movie name                               : Pyanii.Master.HDRip-AVC.by.Bexram
Encoded date                             : UTC 2015-03-07 04:23:16
Writing application                      : mkvmerge v6.8.0 ('Theme for Great Cities') 64bit built on Mar  2 2014 21:34:26
Writing library                          : libebml v1.3.0 + libmatroska v1.4.1

Video
ID                                       : 1
Format                                   : AVC
Format/Info                              : Advanced Video Codec
Format profile                           : High@L4.1
Format settings, CABAC                   : Yes
Format settings, ReFrames                : 12 frames
Codec ID                                 : V_MPEG4/ISO/AVC
Duration                                 : 1h 51mn
Bit rate                                 : 2 962 Kbps
Width                                    : 1 024 pixels
Height                                   : 428 pixels
Display aspect ratio                     : 2.40:1
Frame rate                               : 23.976 fps
Color space                              : YUV
Chroma subsampling                       : 4:2:0
Bit depth                                : 8 bits
Scan type                                : Progressive
Bits/(Pixel*Frame)                       : 0.282
Stream size                              : 2.24 GiB (75%)
Writing library                          : x264 core 142 r2431 ac76440
Encoding settings                        : cabac=1 / ref=12 / deblock=1:-3:-3 / analyse=0x3:0x113 / me=umh / subme=9 / psy=1 / psy_rd=1.00:0.00 / mixed_ref=1 / me_range=32 / chroma_me=1 / trellis=1 / 8x8dct=1 / cqm=0 / deadzone=21,11 / fast_pskip=1 / chroma_qp_offset=-2 / threads=6 / lookahead_threads=1 / sliced_threads=0 / nr=0 / decimate=1 / interlaced=0 / bluray_compat=0 / constrained_intra=0 / bframes=10 / b_pyramid=2 / b_adapt=2 / b_bias=10 / direct=1 / weightb=0 / open_gop=0 / weightp=2 / keyint=240 / keyint_min=23 / scenecut=40 / intra_refresh=0 / rc_lookahead=40 / rc=2pass / mbtree=1 / bitrate=2962 / ratetol=1.0 / qcomp=0.65 / qpmin=0 / qpmax=69 / qpstep=4 / cplxblur=20.0 / qblur=0.5 / ip_ratio=1.40 / aq=1:1.00
Language                                 : English
Default                                  : Yes
Forced                                   : No

Audio #1
ID                                       : 2
Format                                   : AC-3
Format/Info                              : Audio Coding 3
Mode extension                           : CM (complete main)
Codec ID                                 : A_AC3
Duration                                 : 1h 51mn
Bit rate mode                            : Constant
Bit rate                                 : 448 Kbps
Channel(s)                               : 6 channels
Channel positions                        : Front: L C R, Side: L R, LFE
Sampling rate                            : 48.0 KHz
Bit depth                                : 16 bits
Compression mode                         : Lossy
Stream size                              : 356 MiB (12%)
Title                                    : RUS Premier-Video
Language                                 : Russian
Default                                  : Yes
Forced                                   : No

Audio #2
ID                                       : 3
Format                                   : AC-3
Format/Info                              : Audio Coding 3
Mode extension                           : CM (complete main)
Codec ID                                 : A_AC3
Duration                                 : 1h 51mn
Bit rate mode                            : Constant
Bit rate                                 : 448 Kbps
Channel(s)                               : 6 channels
Channel positions                        : Front: L C R, Side: L R, LFE
Sampling rate                            : 48.0 KHz
Bit depth                                : 16 bits
Compression mode                         : Lossy
Stream size                              : 356 MiB (12%)
Title                                    : RUS ORT
Language                                 : Russian
Default                                  : No
Forced                                   : No


Скриншоты:
pb.wtf



Скачать Пьяный мастер через торрент http://i1.imageban.ru/out/2015/03/07/affb7adf095f13fcfaf1eb42ae861aac.jpg Скачать фильм Пьяный мастер через торрент бесплантно в хорошем качестве Описание: Молодой Вонг Фей-Хун, будущий народный герой Китая, защитник обездоленных и обиженных, в молодости был весьма строптив и дерзок. ... 9.9 10 18
Info! Золотая раздача, скачанное не засчитывается.
Торрент: Зарегистрирован [2015-03-07 13:55] · скачан: 164 раз
Статус: √ проверено
Размер: 3 GB
Как cкачать? Как скачать Пьяный мастер через торрент | qTorrent


>> Регистрируемся здесь <<






Отзывы и комментарии о схеме читаем и пишем здесь: ---> Отзывы и комментарии о схеме

Новые благодарочки в телеграм довольных пользователей:
скриншот   скриншот   скриншот   скриншот   скриншот

07-03-2015 14:26 Пьяный мастер Скачать торрент  

Чуть позже будет вторая частьpb.wtf



07-03-2015 15:19 Пьяный мастер Скачать торрент  

Bexram писал(а):

Чуть позже будет вторая часть

будем ждать!pb.wtf



07-03-2015 19:57 Пьяный мастер Скачать торрент  

николаич писал(а):

Bexram писал(а):

Чуть позже будет вторая часть

будем ждать!

+1 ждём-с с нетерпением!pb.wtf



08-03-2015 12:44 Пьяный мастер Скачать торрент  

Ссылка на вторую часть Пьяный мастер 2 / Jui kuen II pb.wtf



    Дорогой пользователь! Огромная просьба, поблагодарите релизера, оцените раздачу и оставьте свои комментарий, если Вы скачали Пьяный мастер через торрент бесплатно! Внесите свою лепту в развитие PiratBit!
    Комментировать посты могут только пользователи прошедшие не сложную регистрацию
    Показать сообщения:    

    Пьяный мастер через торрент
    Скачать бесплатно Пьяный мастер
    Пьяный мастер скачать торрент
    Пьяный мастер смотреть онлайн
    Cкачать фильм Пьяный мастер бесплатно
    Пьяный мастер скачать торрент в хорошем качестве
    Пьяный мастер смотреть онлайн бесплатно в хорошем качестве


    Вы не можете начинать темы
    Вы не можете отвечать на сообщения
    Вы не можете редактировать свои сообщения
    Вы не можете удалять свои сообщения
    Вы не можете голосовать в опросах
    Вы не можете прикреплять файлы к сообщениям
    Вы можете скачивать файлы