2 сезон

iTunes

MVO

1

2 сезон

iTunes

1 сезон

1 сезон

RePack

30

Ultimate

ВАЖНО

ИГРА 18+

pack

RePack

MK11
pack

Легкие деньги

RePack

jed

RePack

fifa19

RePack

RDR2

RePack

NEED FOR SPEED™ PAYBACK

4 сезон

9 сезон

Бесстыжие 9 сезон

Все сериалы

все сериалы на PB.wtf

RePack

FAR CRY 5

Anonymous, добрый вечер, мы не успеваем собрать деньги на оплату серверов за декабрь и январь, помогите нам пожалуйста в это трудное время. В качестве благодарности мы отключим Вам всю рекламу на сайте (укажите свой ник в строку Ваше имя)!

×
  
Magnet ссылка

Освободитель / Libertador (Альберто Арвело / Alberto Arvelo) [2013, Венесуэла, Испания, драма, биография, история, WEB-DLRip, Любительский (двухголосый)] pb.wtf

Освободитель через торрент pb.wtf

Размер: 1.46 GB | Добавлен: 5 лет 10 мес. назад | Торрент скачан:434 раза
Скачать  

08-03-2015 00:44 Освободитель Скачать торрент  

Освободитель / Libertador «What kind of man would defy an Empire?»
Год выпуска: 2013
Страна: Венесуэла, Испания
Жанр: драма, биография, история
Продолжительность: 01:58:55
Перевод: Любительский (двухголосый)
Субтитры: Отсутствует
Режиссер: Альберто Арвело / Alberto Arvelo
В ролях:


Эдгар Рамирес (Simon Bolivar), Эрих Вильдпрет (Antonio Jose de Sucre), Мария Вальверде (Maria Theresa Bolivar), Хуана Акоста (Manuela Sáenz), Иманоль Ариас (Juan Domingo de Monteverde), Леандро Арвело (Fernando), Марта Бенвенути (Voice Over), Хон Бермудес (Spanish officer), Дасио Кабаллеро (Soldado irlandes), Алехандро Ферт (Urdaneta), Марсело Галван (Extra), Хесус Гевара (Messenger)

Описание:
В основе всех событий мы видим реальную историю героя Венесуэлы. Этим героем является Симон Боливар. Симон - знаменитый генерал Венесуэлы, который освободил ее от испанского господства, кроме этого он вел освободительную победную войну за Новую Гранаду, провинцию Кито, а уже в 1819-1830 годах занимал пост президента Великой Колумбии, которая была создана на территории всех этих стран.

Рейтинг:
Бюджет: $50 000 000
Качество: WEB-DLRip
Формат: AVI
Видео кодек:XviD
Аудио кодек:AC3
Видео: XviD, 720x304 (2.35:1), 1290 kbps, 23,976 fps, 0,246 bpp
Аудио: AC3 / 2.0 / 48 kHz / 384 kbps / 16 bit - Любительский (двухголосый)

General
Complete name : D:\_uTorrent_\0sv0bod1tel.2013.P.WEB-DLRip.1400MB.avi
Format : AVI
Format/Info : Audio Video Interleave
File size : 1.46 GiB
Duration : 1h 58mn
Overall bit rate : 1 753 Kbps
Writing application : VirtualDubMod 1.5.10.2 (build 2540/release)
Writing library : VirtualDubMod build 2540/release

Video
ID : 0
Format : MPEG-4 Visual
Format profile : Advanced Simple@L5
Format settings, BVOP : 2
Format settings, QPel : No
Format settings, GMC : No warppoints
Format settings, Matrix : Default (MPEG)
Codec ID : XVID
Codec ID/Hint : XviD
Duration : 1h 58mn
Bit rate : 1 291 Kbps
Width : 720 pixels
Height : 304 pixels
Display aspect ratio : 2.35:1
Frame rate : 23.976 fps
Color space : YUV
Chroma subsampling : 4:2:0
Bit depth : 8 bits
Scan type : Progressive
Compression mode : Lossy
Bits/(Pixel*Frame) : 0.246
Stream size : 1.07 GiB (74%)
Writing library : XviD 1.2.1 (UTC 2008-12-04)

Audio
ID : 1
Format : AC-3
Format/Info : Audio Coding 3
Mode extension : CM (complete main)
Codec ID : 2000
Duration : 1h 58mn
Bit rate mode : Constant
Bit rate : 384 Kbps
Channel(s) : 2 channels
Channel positions : Front: L R
Sampling rate : 48.0 KHz
Bit depth : 16 bits
Compression mode : Lossy
Stream size : 327 MiB (22%)
Alignment : Split accross interleaves

[/code]
pb.wtf



Скачать Освободитель через торрент http://i68.fastpic.ru/big/2015/0308/33/033fac0c114e07237fcca3c14c90d233.png Скачать фильм Освободитель через торрент бесплантно в хорошем качестве Описание: В основе всех событий мы видим реальную историю героя Венесуэлы. Этим героем является Симон Боливар. Симон - знаменитый генерал ... 10 10 12
Торрент: Зарегистрирован [2015-03-08 00:44] · скачан: 434 раз
Статус: T временная
Размер: 1.46 GB
Как cкачать? Как скачать Освободитель через торрент | UTorrent

% Раздел Тема Автор DL S | L
T Фильмы (WEB-DL 720p, 1080p) [ 4.02 GB ] Освободитель / Libertador [2013 биография история WEB-DL 720p Любительский [Пиратская студия дубляжа] Ворон Скачать
1 | 0

28-11-2019 20:33  

Отключить всю рекламу на сайте

09-03-2015 17:18 Освободитель Скачать торрент  

Кто уже посмотрел, рецензируйте плиз :hmmm Как фильмец?pb.wtf



    Дорогой пользователь! Огромная просьба, поблагодарите релизера, оцените раздачу и оставьте свои комментарий, если Вы скачали Освободитель через торрент бесплатно! Внесите свою лепту в развитие PiratBit!
    Комментировать посты могут только пользователи прошедшие не сложную регистрацию
    Показать сообщения:    

    Освободитель через торрент
    Скачать бесплатно Освободитель
    Освободитель скачать торрент
    Освободитель смотреть онлайн
    Cкачать фильм Освободитель бесплатно
    Освободитель скачать торрент в хорошем качестве
    Освободитель смотреть онлайн бесплатно в хорошем качестве


    Вы не можете начинать темы
    Вы не можете отвечать на сообщения
    Вы не можете редактировать свои сообщения
    Вы не можете удалять свои сообщения
    Вы не можете голосовать в опросах
    Вы не можете прикреплять файлы к сообщениям
    Вы можете скачивать файлы