2 сезон

iTunes

MVO

1

2 сезон

iTunes

iTunes

1 сезон

RePack

30

Ultimate

ВАЖНО

ИГРА 18+

pack

RePack

MK11
pack

Легкие деньги

RePack

jed

RePack

fifa19

RePack

RDR2

RePack

NEED FOR SPEED™ PAYBACK

4 сезон

9 сезон

Бесстыжие 9 сезон

Все сериалы

все сериалы на PB.wtf

RePack

FAR CRY 5

Anonymous, добрый день, мы не успеваем собрать деньги на оплату серверов за декабрь и январь, помогите нам пожалуйста в это трудное время. В качестве благодарности мы отключим Вам всю рекламу на сайте (укажите свой ник в строку Ваше имя)!

×
  
Magnet ссылка

С Праздником девочки! / С Праздником девочки! [2015 г., Adult music clips, WEB-DLRip 720p, Оригинал] pb.wtf

С Праздником девочки! через торрент pb.wtf

Размер: 912 MB | Добавлен: 5 лет 10 мес. назад | Торрент скачан:363 раза
Скачать  

08-03-2015 07:50 С Праздником девочки! Скачать торрент  

С Праздником девочки! / С Праздником девочки!
Год выпуска: 2015
Жанр: Adult music clips
Продолжительность: 00:10:36
Перевод: Оригинал

Описание:

Восьмое марта – день такой,
Что ждут девчонки всей душой.
А Вам хочу я пожелать
В прекрасный праздник кайфовать!


Качество: WEB-DLRip 720p
Формат: AVI
Видео кодек: H.264
Аудио кодек: MP3
Видео: AVC, 1280x720 (16:9), 29.330 fps, 15.0 Mbps (0.434 bit/pixel)
Аудио#1: MP3, 44.1 KHz, 2 ch, 256 Kbps, CBR
Релиз от: terras
скриншот   скриншот   скриншот   скриншот   скриншот   скриншот  

Общее
Полное имя : D:\Архив\Клипы\С Праздником девочки!.avi
Формат : AVI
Формат/Информация : Audio Video Interleave
Размер файла : 912 Мбайт
Продолжительность : 10 м.
Общий поток : 12,0 Мбит/сек
Программа кодирования : Lavf52.93.0

Видео
Идентификатор : 0
Формат : AVC
Формат/Информация : Advanced Video Codec
Профиль формата : High@L4.1
Параметр CABAC формата : Да
Параметр ReFrames формата : 3 кадра
Идентификатор кодека : H264
Продолжительность : 10 м.
Битрейт : 11,7 Мбит/сек
Номинальный битрейт : 15,0 Мбит/сек
Ширина : 1280 пикселей
Высота : 720 пикселей
Соотношение сторон : 16:9
Режим частоты кадров : Переменный
Частота кадров : 29,330 кадров/сек
Цветовое пространство : YUV
Субдискретизация насыщенности : 4:2:0
Битовая глубина : 8 бит
Тип развёртки : Прогрессивная
Бит/(Пиксели*Кадры) : 0.434
Размер потока : 891 Мбайт (98%)
Библиотека кодирования : x264 core 112
Настройки программы : cabac=1 / ref=3 / deblock=1:0:0 / analyse=0x3:0x113 / me=hex / subme=7 / psy=1 / psy_rd=1.00:0.00 / mixed_ref=1 / me_range=16 / chroma_me=1 / trellis=1 / 8x8dct=1 / cqm=0 / deadzone=21,11 / fast_pskip=1 / chroma_qp_offset=-2 / threads=1 / sliced_threads=0 / nr=0 / decimate=1 / interlaced=0 / constrained_intra=0 / bframes=3 / b_pyramid=0 / b_adapt=1 / b_bias=0 / direct=1 / weightb=1 / open_gop=0 / weightp=2 / keyint=250 / keyint_min=25 / scenecut=40 / intra_refresh=0 / rc_lookahead=40 / rc=abr / mbtree=1 / bitrate=15000 / ratetol=1.0 / qcomp=0.60 / qpmin=10 / qpmax=51 / qpstep=4 / ip_ratio=1.41 / aq=1:1.00

Аудио
Идентификатор : 1
Формат : MPEG Audio
Версия формата : Version 1
Профиль формата : Layer 3
Режим : Joint stereo
Расширение режима : MS Stereo
Идентификатор кодека : 55
Идентификатор кодека/Подсказка : MP3
Продолжительность : 10 м.
Вид битрейта : Постоянный
Битрейт : 256 Кбит/сек
Каналы : 2 канала
Частота : 44,1 КГц
Метод сжатия : С потерями
Размер потока : 19,4 Мбайт (2%)
Выравнивание : Соединение по промежуткам
Продолжительность промежутка : 26 мс. (0,77 видеокадр)
Библиотека кодирования : LAME3.98.4

pb.wtf



Скачать С Праздником девочки! через торрент http://pic1.kartinco.top/images/10/q9gqz.jpg Скачать фильм С Праздником девочки! через торрент бесплантно в хорошем качестве Описание:Восьмое марта – день такой,Что ждут девчонки всей душой.А Вам хочу я пожелатьВ прекрасный праздник ... 9.6 10 20
Торрент: Зарегистрирован [2015-03-08 07:50] · скачан: 363 раз
Статус: √ проверено
Размер: 912 MB
Как cкачать? Как скачать С Праздником девочки! через торрент | UTorrent

28-11-2019 20:33  

Отключить всю рекламу на сайте

08-03-2015 09:45 С Праздником девочки! Скачать торрент  

как символично - показать девочкам их предназначение В ИХ ПРАЗДНИК :rofle:pb.wtf



08-03-2015 11:58 С Праздником девочки! Скачать торрент  

А зону бикини некоторым "девочкам" можно было бы и потщательней обработать... pb.wtf



08-03-2015 13:36 С Праздником девочки! Скачать торрент  

sergunka,

Цитата:

А Вам хочу я пожелать
В прекрасный праздник кайфовать!pb.wtf



08-03-2015 15:26 С Праздником девочки! Скачать торрент  

Такое на 23 февраля больше подходитpb.wtf



    Дорогой пользователь! Огромная просьба, поблагодарите релизера, оцените раздачу и оставьте свои комментарий, если Вы скачали С Праздником девочки! через торрент бесплатно! Внесите свою лепту в развитие PiratBit!
    Комментировать посты могут только пользователи прошедшие не сложную регистрацию
    Показать сообщения:    

    С Праздником девочки! через торрент
    Скачать бесплатно С Праздником девочки!
    С Праздником девочки! скачать торрент
    С Праздником девочки! смотреть онлайн
    Cкачать фильм С Праздником девочки! бесплатно
    С Праздником девочки! скачать торрент в хорошем качестве
    С Праздником девочки! смотреть онлайн бесплатно в хорошем качестве


    Вы не можете начинать темы
    Вы не можете отвечать на сообщения
    Вы не можете редактировать свои сообщения
    Вы не можете удалять свои сообщения
    Вы не можете голосовать в опросах
    Вы не можете прикреплять файлы к сообщениям
    Вы можете скачивать файлы