Мега распродажа FORZA HORIZON 4 ULTIMATE+ВСЕ DLC+ОНЛАЙН всего за 499р. 349 руб. (супер цена). Внимание количество ограничено!!!

iTunes

1+1

iTunes

мы

iTunes

1

1 сезон

Чернобыль

1 сезон

Ральф против интернета

Лицензия

ПШазам

8 сезон

Игра престолов

Лицензия

30
pack

ВАЖНО

!!Акция!!

Alien_RageХит недели

RePack

Resident Evil 21

ИГРА 18+

pack

RePack

Metro:Exodus

!!Акция!!

Alien_Rage

RePack

fifa19

RePack

Assassins Creed: Odyssey

RePack

NEED FOR SPEED™ PAYBACK

3 сезон

9 сезон

Бесстыжие 9 сезон

Все сериалы

все сериалы на PB.wtf

RePack

FAR CRY 5
Ребята, катастрофически не хватает 2730р. для оплаты серверов за ИЮНЬ (всвязи с блокировками трафик упал в 3 раза), 1-2р., выручайте.
  

Невеста была в трауре / La Mariee etait en noir (Франсуа Трюффо) [1968, драма, криминал, детектив, BDRip-AVC] MVO, DVO pb.wtf

Невеста была в трауре через торрент pb.wtf

Размер: 3.3 GB | Добавлен: 4 года 4 мес. назад | Торрент скачан:7 раз
Скачать  

08-03-2015 07:58 Невеста была в трауре Скачать торрент  

Невеста была в трауре / La Mariee etait en noir

Год выпуска: 1968
Страна: Франция, Италия
Жанр: драма, криминал, детектив
Продолжительность: 01:47:37
Перевод: профессиональный многоголосый, профессиональный двухголосый
Субтитры: русские, английские

Режиссёр: Франсуа Трюффо

В ролях: Жанна Моро, Мишель Буке, Жан-Клод Бриали, Шарль Деннер, Клод Риш, Микаэль Лонсдаль, Даниэль Буланже, Александра Стюарт, Сильвин Деланнуа, Люс Фабиоль

Описание: Жули Колер с детства мечтала стать супругой прекрасного принца — соседского мальчишки Давида. Но в день, когда любящие сердца должны были соединиться навсегда, свершилось страшное — жених был убит, а невеста сменила белое свадебное платье на траурное черное, поклявшись отомстить тем пятерым, что отняли у неё смысл жизни...



Качество: BDRip-AVC
Формат: MKV
Видео кодек: H.264
Аудио кодек: AC3
Видео: 3731 Кбит/с, 962x576, 23.976 кадра/с, 0.281 bpp
Аудио 1: русский, AC3, 192 kbps, 2 ch, 48 kHz [профессиональный многоголосый, R5]
Аудио 2: русский, AC3, 192 kbps, 2 ch, 48 kHz [профессиональный двухголосый, HTB+]
Аудио 3: французский, AC3, 192 kbps, 1 ch, 48 kHz [оригинал]

Имеются неименованные главы/чаптеры.
Золотой глобус, 1969 год
Номинации (1):
Лучший иностранный фильм — «Франция»
frame I:963 Avg QP:20.10 size: 72073
frame P:29814 Avg QP:21.36 size: 35359
frame B:124039 Avg QP:22.81 size: 15775

Общее
Уникальный идентификатор : 249884542697646685235795757110638247878 (0xBBFE0328D9EC956C8B4ADAC30C017FC6)
Полное имя : D:VideoNevesta byla v traure.1967.BDRip.AVC.mkv
Формат : Matroska
Версия формата : Version 4 / Version 2
Размер файла : 3,30 Гбайт
Продолжительность : 1 ч. 47 м.
Общий поток : 4395 Кбит/сек
Дата кодирования : UTC 2015-03-07 14:40:09
Программа кодирования : mkvmerge v7.7.0 ('Six Voices') 64bit built on Feb 28 2015 23:39:33
Библиотека кодирования : libebml v1.3.1 + libmatroska v1.4.2
DURATION : 01:43:18.989000000
NUMBER_OF_FRAMES : 941
NUMBER_OF_BYTES : 39322
_STATISTICS_WRITING_APP : mkvmerge v7.7.0 ('Six Voices') 64bit built on Feb 28 2015 23:39:33
_STATISTICS_WRITING_DATE_UTC : 2015-03-07 14:40:09
_STATISTICS_TAGS : BPS DURATION NUMBER_OF_FRAMES NUMBER_OF_BYTES

Видео
Идентификатор : 1
Формат : AVC
Формат/Информация : Advanced Video Codec
Профиль формата : High@L4.1
Параметр CABAC формата : Да
Параметр ReFrames формата : 9 кадров
Идентификатор кодека : V_MPEG4/ISO/AVC
Продолжительность : 1 ч. 47 м.
Битрейт : 3731 Кбит/сек
Ширина : 962 пикселя
Высота : 576 пикселей
Соотношение сторон : 1,670
Режим частоты кадров : Постоянный
Частота кадров : 23,976 кадра/сек
Цветовое пространство : YUV
Субдискретизация насыщенности : 4:2:0
Битовая глубина : 8 бит
Тип развёртки : Прогрессивная
Бит/(Пиксели*Кадры) : 0.281
Размер потока : 2,80 Гбайт (85%)
Заголовок : BDRip -- STarankov
Библиотека кодирования : x264 core 142 r2431 ac76440
Настройки программы : cabac=1 / ref=9 / deblock=1:-2:-2 / analyse=0x3:0x113 / me=umh / subme=9 / psy=1 / psy_rd=1.00:0.15 / mixed_ref=1 / me_range=32 / chroma_me=1 / trellis=2 / 8x8dct=1 / cqm=0 / deadzone=21,11 / fast_pskip=1 / chroma_qp_offset=-3 / threads=6 / lookahead_threads=1 / sliced_threads=0 / nr=0 / decimate=1 / interlaced=0 / bluray_compat=0 / constrained_intra=0 / bframes=8 / b_pyramid=2 / b_adapt=2 / b_bias=0 / direct=3 / weightb=1 / open_gop=0 / weightp=2 / keyint=230 / keyint_min=23 / scenecut=40 / intra_refresh=0 / rc_lookahead=40 / rc=crf / mbtree=0 / crf=20.0 / qcomp=0.60 / qpmin=0 / qpmax=69 / qpstep=4 / vbv_maxrate=40000 / vbv_bufsize=50000 / crf_max=0.0 / nal_hrd=none / filler=0 / ip_ratio=1.40 / pb_ratio=1.30 / aq=1:1.00
Язык : French
Default : Да
Forced : Нет
DURATION : 01:47:37.118000000
NUMBER_OF_FRAMES : 154816
NUMBER_OF_BYTES : 3080372573
_STATISTICS_WRITING_APP : mkvmerge v7.7.0 ('Six Voices') 64bit built on Feb 28 2015 23:39:33
_STATISTICS_WRITING_DATE_UTC : 2015-03-07 14:40:09
_STATISTICS_TAGS : BPS DURATION NUMBER_OF_FRAMES NUMBER_OF_BYTES

Аудио #1
Идентификатор : 2
Формат : AC-3
Формат/Информация : Audio Coding 3
Расширение режима : CM (complete main)
Параметр Endianness формата : Big
Идентификатор кодека : A_AC3
Продолжительность : 1 ч. 47 м.
Вид битрейта : Постоянный
Битрейт : 192 Кбит/сек
Каналы : 2 канала
Расположение каналов : Front: L R
Частота : 48,0 КГц
Битовая глубина : 16 бит
Метод сжатия : С потерями
Размер потока : 148 Мбайт (4%)
Заголовок : MVO (R5)
Язык : Russian
Default : Да
Forced : Нет

Аудио #2
Идентификатор : 3
Формат : AC-3
Формат/Информация : Audio Coding 3
Расширение режима : CM (complete main)
Параметр Endianness формата : Big
Идентификатор кодека : A_AC3
Продолжительность : 1 ч. 47 м.
Вид битрейта : Постоянный
Битрейт : 192 Кбит/сек
Каналы : 2 канала
Расположение каналов : Front: L R
Частота : 48,0 КГц
Битовая глубина : 16 бит
Метод сжатия : С потерями
Размер потока : 148 Мбайт (4%)
Заголовок : DVO (HTB+)
Язык : Russian
Default : Нет
Forced : Нет

Аудио #3
Идентификатор : 4
Формат : AC-3
Формат/Информация : Audio Coding 3
Расширение режима : CM (complete main)
Параметр Endianness формата : Big
Идентификатор кодека : A_AC3
Продолжительность : 1 ч. 47 м.
Вид битрейта : Постоянный
Битрейт : 192 Кбит/сек
Каналы : 1 канал
Расположение каналов : Front: C
Частота : 48,0 КГц
Битовая глубина : 16 бит
Метод сжатия : С потерями
Размер потока : 148 Мбайт (4%)
Заголовок : Original
Язык : French
Default : Нет
Forced : Нет

Текст #1
Идентификатор : 5
Формат : UTF-8
Идентификатор кодека : S_TEXT/UTF8
Идентификатор кодека/Информация : UTF-8 Plain Text
Заголовок : русские
Язык : Russian
Default : Нет
Forced : Нет

Текст #2
Идентификатор : 6
Формат : UTF-8
Идентификатор кодека : S_TEXT/UTF8
Идентификатор кодека/Информация : UTF-8 Plain Text
Заголовок : английские
Язык : English
Default : Нет
Forced : Нет

Меню
00:00:00.000 : :Chapter 01
00:04:21.344 : :Chapter 02
00:07:38.332 : :Chapter 03
00:14:01.257 : :Chapter 04
00:17:28.797 : :Chapter 05
00:21:08.016 : :Chapter 06
00:23:37.040 : :Chapter 07
00:30:17.065 : :Chapter 08
00:32:31.239 : :Chapter 09
00:38:06.242 : :Chapter 10
00:42:11.152 : :Chapter 11
00:46:53.727 : :Chapter 12
00:51:04.895 : :Chapter 13
00:55:04.092 : :Chapter 14
01:00:32.754 : :Chapter 15
01:04:31.409 : :Chapter 16
01:08:13.046 : :Chapter 17
01:13:09.551 : :Chapter 18
01:17:06.455 : :Chapter 19
01:21:31.261 : :Chapter 20
01:24:31.524 : :Chapter 21
01:29:49.050 : :Chapter 22
01:33:44.910 : :Chapter 23
01:38:44.627 : :Chapter 24
pb.wtf



Скачать Невеста была в трауре через торрент http://i63.fastpic.ru/big/2015/0308/b2/7e26330781db140d1665ea418273cbb2.jpg Скачать фильм Невеста была в трауре через торрент бесплантно в хорошем качестве Описание: Жули Колер с детства мечтала стать супругой прекрасного принца — соседского мальчишки Давида. Но в день, когда любящие сердца ... 10 10 1
Торрент: Зарегистрирован [2015-03-08 07:58] · скачан: 7 раз
Статус: √ проверено
Размер: 3.3 GB
Как cкачать? Как скачать Невеста была в трауре через торрент | qTorrent

% Раздел Тема Автор DL S | L
Фильмы до 2000 г. [ 2.9 GB ] Невеста была в трауре / La Mariee etait en noir [1967 г BDRip-AVC] MVO DVO koenig Скачать
1 | 0
Фильмы [HD 720p, 1080p] (Хороший звук DUB, MVO) [ 5.46 GB ] Невеста была в трауре / La Mariee etait en noir [1968 BDRip 720p] MVO DVO msltel Скачать
1 | 0


>> Регистрируемся здесь <<






Отзывы и комментарии о схеме читаем и пишем здесь: ---> Отзывы и комментарии о схеме

Новые благодарочки в телеграм довольных пользователей:
скриншот   скриншот   скриншот   скриншот   скриншот
    Дорогой пользователь! Огромная просьба, поблагодарите релизера, оцените раздачу и оставьте свои комментарий, если Вы скачали Невеста была в трауре через торрент бесплатно! Внесите свою лепту в развитие PiratBit!
    Комментировать посты могут только пользователи прошедшие не сложную регистрацию
    Показать сообщения:    

    Невеста была в трауре через торрент
    Скачать бесплатно Невеста была в трауре
    Невеста была в трауре скачать торрент
    Невеста была в трауре смотреть онлайн
    Cкачать фильм Невеста была в трауре бесплатно
    Невеста была в трауре скачать торрент в хорошем качестве
    Невеста была в трауре смотреть онлайн бесплатно в хорошем качестве


    Вы не можете начинать темы
    Вы не можете отвечать на сообщения
    Вы не можете редактировать свои сообщения
    Вы не можете удалять свои сообщения
    Вы не можете голосовать в опросах
    Вы не можете прикреплять файлы к сообщениям
    Вы можете скачивать файлы