Ссылка на приватное зеркало нашего сайта всего за 1$. Внимание количество ограничено!!!

2 сезон

iTunes

1 сезон

1

2 сезон

2 сезон

iTunes

1 сезон

RePack

30

Ultimate

ВАЖНО

ИГРА 18+

pack

RePack

MK11
pack

Забери бонус

RePack

jed

!!Акция!!

Alien_Rage

RePack

fifa19

RePack

Assassins Creed: Odyssey

RePack

NEED FOR SPEED™ PAYBACK

4 сезон

9 сезон

Бесстыжие 9 сезон

Все сериалы

все сериалы на PB.wtf

RePack

FAR CRY 5
  

Последний дом на Семетри Лэйн / The Last House on Cemetery Lane (Эндрю Джонс ) [2015, ужасы, WEB-DLRip, Любительский (двухголосый) [den904, DeadSno] pb.wtf

Последний дом на Семетри Лэйн через торрент pb.wtf

Размер: 1.4 GB | Добавлен: 5 лет 8 мес. назад | Торрент скачан:265 раз
Скачать  

09-03-2015 11:16 Последний дом на Семетри Лэйн Скачать торрент  

Последний дом на Семетри Лэйн / The Last House on Cemetery Lane

Год выпуска: 2015
Страна: Великобритания
Жанр: ужасы
Продолжительность: 01:21:15
Перевод: Любительский (двухголосый) [den904, DeadSno]- перевод на русский язык [Северный]
Режиссер: Эндрю Джонс
В ролях: Вивьен Бридсон (Agnes), Джорджина Блакледж (Cassie Konrad), Ли Бэйн (John Davies), Тесса Вуд (Mrs. Connelly), Ian Smyth (New Tenant)
Описание:
Писатель-сценарист приезжает в прекрасный дом, расположенный в конце переулка у кладбища, чтобы в тишине и на свежем воздухе написать сценарий к новому фильму ужасов. Но выясняется, что в доме есть еще один жилец, хранящий, как и этот дом, страшные тайны.
Рейтинг:

Качество: WEB-DLRip
Формат: AVI
Видео кодек: XviD
Аудио кодек:AC3
Видео: XviD, 720x304 (2.35:1), 1969 kbps, 23,976 fps, 0,375 bpp
Аудио №1: AC3 / 2.0 / 48 kHz / 192 kbps / Russian
Аудио №2: AC3 / 2.0 / 48 kHz / 192 kbps / English

Код:

General
Complete name                            : D:\Торенты\Poslednij.dom.na.Semetri.Ljejn.2015.L2.WEB-DLRip.avi
Format                                   : AVI
Format/Info                              : Audio Video Interleave
File size                                : 1.40 GiB
Duration                                 : 1h 21mn
Overall bit rate                         : 2 462 Kbps
Writing application                      : VirtualDubMod 1.5.10.3 | www.virtualdub-fr.org || (build 2550/release)
Writing library                          : VirtualDubMod build 2550/release

Video
ID                                       : 0
Format                                   : MPEG-4 Visual
Format profile                           : Advanced Simple@L5
Format settings, BVOP                    : 1
Format settings, QPel                    : No
Format settings, GMC                     : No warppoints
Format settings, Matrix                  : Custom
Codec ID                                 : XVID
Codec ID/Hint                            : XviD
Duration                                 : 1h 21mn
Bit rate                                 : 1 970 Kbps
Width                                    : 720 pixels
Height                                   : 304 pixels
Display aspect ratio                     : 2.35:1
Frame rate                               : 23.976 fps
Color space                              : YUV
Chroma subsampling                       : 4:2:0
Bit depth                                : 8 bits
Scan type                                : Progressive
Compression mode                         : Lossy
Bits/(Pixel*Frame)                       : 0.375
Stream size                              : 1.12 GiB (80%)
Writing library                          : XviD 73

Audio #1
ID                                       : 1
Format                                   : AC-3
Format/Info                              : Audio Coding 3
Mode extension                           : CM (complete main)
Codec ID                                 : 2000
Duration                                 : 1h 21mn
Bit rate mode                            : Constant
Bit rate                                 : 192 Kbps
Channel(s)                               : 2 channels
Channel positions                        : Front: L R
Sampling rate                            : 48.0 KHz
Bit depth                                : 16 bits
Compression mode                         : Lossy
Stream size                              : 112 MiB (8%)
Alignment                                : Split accross interleaves

Audio #2
ID                                       : 2
Format                                   : AC-3
Format/Info                              : Audio Coding 3
Mode extension                           : CM (complete main)
Codec ID                                 : 2000
Duration                                 : 1h 21mn
Bit rate mode                            : Constant
Bit rate                                 : 192 Kbps
Channel(s)                               : 2 channels
Channel positions                        : Front: L R
Sampling rate                            : 48.0 KHz
Bit depth                                : 16 bits
Compression mode                         : Lossy
Delay relative to video                  : 12ms
Stream size                              : 112 MiB (8%)
Alignment                                : Split accross interleaves

pb.wtf



Скачать Последний дом на Семетри Лэйн через торрент http://i1.imageban.ru/out/2015/03/09/1745c1e09a65d4dbaebca7e4af27930a.jpg Скачать фильм Последний дом на Семетри Лэйн через торрент бесплантно в хорошем качестве Описание: Писатель-сценарист приезжает в прекрасный дом, расположенный в конце переулка у кладбища, чтобы в тишине и на свежем воздухе ... 7.7 10 9
Торрент: Зарегистрирован [2015-03-09 11:16] · скачан: 265 раз
Статус: T временная
Размер: 1.4 GB
Как cкачать? Как скачать Последний дом на Семетри Лэйн через торрент | qTorrent

28-11-2019 20:33  

Отключить всю рекламу на сайте

    Дорогой пользователь! Огромная просьба, поблагодарите релизера, оцените раздачу и оставьте свои комментарий, если Вы скачали Последний дом на Семетри Лэйн через торрент бесплатно! Внесите свою лепту в развитие PiratBit!
    Комментировать посты могут только пользователи прошедшие не сложную регистрацию
    Показать сообщения:    

    Последний дом на Семетри Лэйн через торрент
    Скачать бесплатно Последний дом на Семетри Лэйн
    Последний дом на Семетри Лэйн скачать торрент
    Последний дом на Семетри Лэйн смотреть онлайн
    Cкачать фильм Последний дом на Семетри Лэйн бесплатно
    Последний дом на Семетри Лэйн скачать торрент в хорошем качестве
    Последний дом на Семетри Лэйн смотреть онлайн бесплатно в хорошем качестве


    Вы не можете начинать темы
    Вы не можете отвечать на сообщения
    Вы не можете редактировать свои сообщения
    Вы не можете удалять свои сообщения
    Вы не можете голосовать в опросах
    Вы не можете прикреплять файлы к сообщениям
    Вы можете скачивать файлы