Ссылка на приватное зеркало нашего сайта всего за 1$. Внимание количество ограничено!!!

2 сезон

iTunes

1 сезон

1

2 сезон

2 сезон

iTunes

1 сезон

RePack

30

Новинка

ВАЖНО

ИГРА 18+

pack

RePack

MK11
pack

Забери бонус

RePack

jed

!!Акция!!

Alien_Rage

RePack

fifa19

RePack

Assassins Creed: Odyssey

RePack

NEED FOR SPEED™ PAYBACK

4 сезон

9 сезон

Бесстыжие 9 сезон

Все сериалы

все сериалы на PB.wtf

RePack

FAR CRY 5
  

Освободитель / Libertador (Альберто Арвело ) [2013, драма, биография, история, WEB-DL 720p, Любительский (двухголосый) [Пиратская студия дубляжа] pb.wtf

Освободитель через торрент pb.wtf

Размер: 4.02 GB | Добавлен: 5 лет 8 мес. назад | Торрент скачан:44 раза
Скачать  

09-03-2015 11:28 Освободитель Скачать торрент  

Освободитель / Libertador

Год выпуска: 2013
Страна: Венесуэла, Испания
Жанр: драма, биография, история
Продолжительность: 01:58:55
Перевод: Любительский (двухголосый) [Пиратская студия дубляжа]
Режиссер: Альберто Арвело
В ролях: Эдгар Рамирес (Simon Bolivar), Эрих Вильдпрет (Antonio Jose de Sucre), Мария Вальверде (Maria Theresa Bolivar), Хуана Акоста (Manuela Sáenz), Иманоль Ариас (Juan Domingo de Monteverde), Леандро Арвело (Fernando), Марта Бенвенути (Voice Over), Хон Бермудес (Spanish officer), Дасио Кабаллеро (Soldado irlandes), Алехандро Ферт (Urdaneta), Марсело Галван (Extra), Хесус Гевара (Messenger)
Описание:
В основе всех событий мы видим реальную историю героя Венесуэлы. Этим героем является Симон Боливар. Симон - знаменитый генерал Венесуэлы, который освободил ее от испанского господства, кроме этого он вел освободительную победную войну за Новую Гранаду, провинцию Кито, а уже в 1819-1830 годах занимал пост президента Великой Колумбии, которая была создана на территории всех этих стран.
Рейтинг:

Качество: WEB-DL 720p
Формат: MKV
Видео кодек: AVC
Аудио кодек:AC3
Видео: AVC, 1280x532 (2.40:1), 3976 kbps, 23,976 fps, 0,244 bpp
Аудио №1: AC3 / 2.0 / 48 kHz / 384 kbps / 16 bit
Аудио №2: Spanish / AC3 / 5.1 / 48 kHz / 384 kbps / 16 bit
Навигация по главам: есть

Код:

General
Unique ID                                : 217045863230329428295064257626558438551 (0xA349834247149002B762CBEABDDC1C97)
Complete name                            : D:\Торенты\Osvoboditel.2013.WEB-DL.720p.mkv
Format                                   : Matroska
Format version                           : Version 4 / Version 2
File size                                : 4.02 GiB
Duration                                 : 1h 58mn
Overall bit rate                         : 4 840 Kbps
Encoded date                             : UTC 2015-03-06 20:53:26
Writing application                      : mkvmerge v7.6.0 ('Garden of Dreams') 32bit built on Feb  8 2015 12:51:39
Writing library                          : libebml v1.3.1 + libmatroska v1.4.2

Video
ID                                       : 1
Format                                   : AVC
Format/Info                              : Advanced Video Codec
Format profile                           : Main@L3.1
Format settings, CABAC                   : No
Format settings, ReFrames                : 2 frames
Codec ID                                 : V_MPEG4/ISO/AVC
Duration                                 : 1h 58mn
Bit rate                                 : 3 976 Kbps
Width                                    : 1 280 pixels
Height                                   : 532 pixels
Display aspect ratio                     : 2.40:1
Frame rate                               : 23.976 fps
Color space                              : YUV
Chroma subsampling                       : 4:2:0
Bit depth                                : 8 bits
Scan type                                : Progressive
Bits/(Pixel*Frame)                       : 0.244
Stream size                              : 3.30 GiB (82%)
Language                                 : English
Default                                  : Yes
Forced                                   : No
Color primaries                          : BT.709-5, BT.1361, IEC 61966-2-4, SMPTE RP177
Transfer characteristics                 : BT.709-5, BT.1361
Matrix coefficients                      : BT.709-5, BT.1361, IEC 61966-2-4 709, SMPTE RP177

Audio #1
ID                                       : 2
Format                                   : AC-3
Format/Info                              : Audio Coding 3
Mode extension                           : CM (complete main)
Codec ID                                 : A_AC3
Duration                                 : 1h 58mn
Bit rate mode                            : Constant
Bit rate                                 : 384 Kbps
Channel(s)                               : 2 channels
Channel positions                        : Front: L R
Sampling rate                            : 48.0 KHz
Bit depth                                : 16 bits
Compression mode                         : Lossy
Stream size                              : 327 MiB (8%)
Default                                  : Yes
Forced                                   : No

Audio #2
ID                                       : 3
Format                                   : AC-3
Format/Info                              : Audio Coding 3
Mode extension                           : CM (complete main)
Codec ID                                 : A_AC3
Duration                                 : 1h 58mn
Bit rate mode                            : Constant
Bit rate                                 : 384 Kbps
Channel(s)                               : 6 channels
Channel positions                        : Front: L C R, Side: L R, LFE
Sampling rate                            : 48.0 KHz
Bit depth                                : 16 bits
Compression mode                         : Lossy
Stream size                              : 327 MiB (8%)
Language                                 : Spanish
Default                                  : No
Forced                                   : No

Menu
00:00:00.000                             : en:Chapter 1
00:09:59.000                             : en:Chapter 2
00:20:54.000                             : en:Chapter 3
00:30:28.000                             : en:Chapter 4
00:42:36.000                             : en:Chapter 5
00:54:25.000                             : en:Chapter 6
01:05:29.000                             : en:Chapter 7
01:16:34.000                             : en:Chapter 8
01:27:48.000                             : en:Chapter 9
01:38:41.000                             : en:Chapter 10
01:51:48.000                             : en:Chapter 11

pb.wtf



Скачать Освободитель через торрент http://i4.imageban.ru/out/2015/03/09/e93929036b6587ddcd621ff22311fb98.jpg Скачать фильм Освободитель через торрент бесплантно в хорошем качестве Описание: В основе всех событий мы видим реальную историю героя Венесуэлы. Этим героем является Симон Боливар. Симон - знаменитый генерал ... 10 10 4
Торрент: Зарегистрирован [2015-03-09 11:28] · скачан: 44 раз
Статус: T временная
Размер: 4.02 GB
Как cкачать? Как скачать Освободитель через торрент | qTorrent

% Раздел Тема Автор DL S | L
T Фильмы 2013 [DVDrip, WEB-DLRip, HDrip] [ 1.46 GB ] Освободитель / Libertador [2013 Венесуэла Испания биография история WEB-DLRip Любительский ] _KaisiK_ Скачать
1 | 0

28-11-2019 20:33  

Отключить всю рекламу на сайте

    Дорогой пользователь! Огромная просьба, поблагодарите релизера, оцените раздачу и оставьте свои комментарий, если Вы скачали Освободитель через торрент бесплатно! Внесите свою лепту в развитие PiratBit!
    Комментировать посты могут только пользователи прошедшие не сложную регистрацию
    Показать сообщения:    

    Освободитель через торрент
    Скачать бесплатно Освободитель
    Освободитель скачать торрент
    Освободитель смотреть онлайн
    Cкачать фильм Освободитель бесплатно
    Освободитель скачать торрент в хорошем качестве
    Освободитель смотреть онлайн бесплатно в хорошем качестве


    Вы не можете начинать темы
    Вы не можете отвечать на сообщения
    Вы не можете редактировать свои сообщения
    Вы не можете удалять свои сообщения
    Вы не можете голосовать в опросах
    Вы не можете прикреплять файлы к сообщениям
    Вы можете скачивать файлы