Ссылка на приватное зеркало всего за 1$. Внимание количество ограничено!!!

iTunes

iTunes

iTunes

1

iTunes

iTunes

iTunes

iTunes

iTunes

30
pack

$ от Little Big

ВАЖНО

!!Акция!!

Alien_RageХит недели

RePack

Resident Evil 21

ИГРА 18+

pack

RePack

jed

!!Акция!!

Alien_Rage

RePack

fifa19

RePack

Assassins Creed: Odyssey

RePack

NEED FOR SPEED™ PAYBACK

4 сезон

9 сезон

Бесстыжие 9 сезон

Все сериалы

все сериалы на PB.wtf

RePack

FAR CRY 5
  

Поездка на возу 2 / Hayride 2 ( Terron R. Parsons) [2015, ужасы, боевик, триллер, WEB-DL 720p] Любительское (двухголосое) [DeadSno & den904] pb.wtf

Поездка на возу 2 через торрент pb.wtf

Размер: 2.9 GB | Добавлен: 5 лет 4 мес. назад | Торрент скачан:121 раз
Скачать  

09-03-2015 18:57 Поездка на возу 2 Скачать торрент  

Информация о фильме

Название: Поездка на возу 2

Оригинальное название: Hayride 2

Год выхода: 2015

Выпущено: США / Frame 29 Films, Full Resolution Design, MudBrick Media, Studio 213 Films

Продолжительность: 01:32:17

Озвучивание: Любительское (двухголосое) [DeadSno & den904] - перевод на русский язык [dsa69]

Жанр: ужасы, боевик, триллер

Режиссер: Terron R. Parsons

В ролях: Sherri Eakin, Джереми Сэнд, Джереми Айви, Корландос Скотт, Ричард Тайсон, Джон ДеЛонг, Рэйчел Варела, Дэвид ’Шарк’ Фралик, Адам Кардон, Дефесио Стоглин

Описание: Конец одного пути только знаменует собой начало другого, когда детектив Лумис возвращается, чтобы раскрыть правду легенды Питчфорка.



Файл

Качество: WEB-DL 720p
Формат: MKV
Видео кодек: AVC
Аудио кодек:AC3
Видео: 3839 kb/s, 1280x720 : 23.976 fps

Аудио: Russian: AC3, 192 kb/s (2 ch): 48.0 KHz
Аудио: English: AC3, 384 kb/s (6 ch): 48.0 KHz

Субтитры: English
Format : Matroska

Format version : Version 4 / Version 2

File size : 2.90 GiB

Duration : 1h 32mn

Overall bit rate : 4 504 Kbps

Encoded date : UTC 2015-03-09 18:38:14

Writing application : mkvmerge v6.1.0 ('Old Devil') built on Mar 4 2013 09:10:42

Writing library : libebml v1.3.0 + libmatroska v1.4.0

Video

ID : 1

Format : AVC

Format/Info : Advanced Video Codec

Format profile : High@L3.1

Format settings, CABAC : No

Format settings, ReFrames : 2 frames

Codec ID : V_MPEG4/ISO/AVC

Duration : 1h 32mn

Bit rate : 3 839 Kbps

Width : 1 280 pixels

Height : 720 pixels

Display aspect ratio : 16:9

Frame rate : 23.976 fps

Color space : YUV

Chroma subsampling : 4:2:0

Bit depth : 8 bits

Scan type : Progressive

Bits/(Pixel*Frame) : 0.174

Stream size : 2.47 GiB (85%)

Language : English

Default : Yes

Forced : No

Color primaries : BT.709-5, BT.1361, IEC 61966-2-4, SMPTE RP177

Transfer characteristics : BT.709-5, BT.1361

Matrix coefficients : BT.709-5, BT.1361, IEC 61966-2-4 709, SMPTE RP177

Audio #1

ID : 2

Format : AC-3

Format/Info : Audio Coding 3

Mode extension : CM (complete main)

Format settings, Endianness : Big

Codec ID : A_AC3

Duration : 1h 32mn

Bit rate mode : Constant

Bit rate : 192 Kbps

Channel(s) : 2 channels

Channel positions : Front: L R

Sampling rate : 48.0 KHz

Bit depth : 16 bits

Compression mode : Lossy

Stream size : 127 MiB (4%)

Language : Russian

Default : Yes

Forced : No

Audio #2

ID : 3

Format : AC-3

Format/Info : Audio Coding 3

Mode extension : CM (complete main)

Format settings, Endianness : Big

Codec ID : A_AC3

Duration : 1h 32mn

Bit rate mode : Constant

Bit rate : 384 Kbps

Channel(s) : 6 channels

Channel positions : Front: L C R, Side: L R, LFE

Sampling rate : 48.0 KHz

Bit depth : 16 bits

Compression mode : Lossy

Stream size : 253 MiB (9%)

Language : English

Default : No

Forced : No

Text

ID : 4

Format : UTF-8

Codec ID : S_TEXT/UTF8

Codec ID/Info : UTF-8 Plain Text

Language : English

Default : No

Forced : No

Menu

00:00:00.000 : en:1

00:14:16.000 : en:2

00:31:36.000 : en:3

00:44:02.000 : en:4

00:58:00.000 : en:5

01:10:59.000 : en:6

01:24:06.000 : en:7

01:29:26.000 : en:8
pb.wtf



Скачать Поездка на возу 2 через торрент http://i60.fastpic.ru/big/2015/0309/66/8ff21c16e355e6ffc6732cdd27958166.jpg Скачать фильм Поездка на возу 2 через торрент бесплантно в хорошем качестве Описание: Конец одного пути только знаменует собой начало другого, когда детектив Лумис возвращается, чтобы раскрыть правду легенды ... 10 10 8
Торрент: Зарегистрирован [2015-03-09 18:57] · скачан: 121 раз
Статус: T временная
Размер: 2.9 GB
Как cкачать? Как скачать Поездка на возу 2 через торрент | qTorrent

% Раздел Тема Автор DL S | L
T Фильмы 2015 (Звук TS, Cam, VO, DVO) [ 1.45 GB ] Поездка на возу 2 / Hayride 2 [2015 WEB-DLRip Любительский двухголосый "den904 & DeadSno"] coc900 Скачать
1 | 0

28-11-2019 20:33  

Отключить всю рекламу на сайте

22-03-2015 18:53 Поездка на возу 2 Скачать торрент  

Рейтинг радует...pb.wtf



    Дорогой пользователь! Огромная просьба, поблагодарите релизера, оцените раздачу и оставьте свои комментарий, если Вы скачали Поездка на возу 2 через торрент бесплатно! Внесите свою лепту в развитие PiratBit!
    Комментировать посты могут только пользователи прошедшие не сложную регистрацию
    Показать сообщения:    

    Поездка на возу 2 через торрент
    Скачать бесплатно Поездка на возу 2
    Поездка на возу 2 скачать торрент
    Поездка на возу 2 смотреть онлайн
    Cкачать фильм Поездка на возу 2 бесплатно
    Поездка на возу 2 скачать торрент в хорошем качестве
    Поездка на возу 2 смотреть онлайн бесплатно в хорошем качестве


    Вы не можете начинать темы
    Вы не можете отвечать на сообщения
    Вы не можете редактировать свои сообщения
    Вы не можете удалять свои сообщения
    Вы не можете голосовать в опросах
    Вы не можете прикреплять файлы к сообщениям
    Вы можете скачивать файлы