Ссылка на приватное зеркало нашего сайта всего за 1$. Внимание количество ограничено!!!

2 сезон

iTunes

1 сезон

1

2 сезон

2 сезон

iTunes

1 сезон

RePack

30

Ultimate

ВАЖНО

ИГРА 18+

pack

RePack

MK11
pack

Забери бонус

RePack

jed

!!Акция!!

Alien_Rage

RePack

fifa19

RePack

Assassins Creed: Odyssey

RePack

NEED FOR SPEED™ PAYBACK

4 сезон

9 сезон

Бесстыжие 9 сезон

Все сериалы

все сериалы на PB.wtf

RePack

FAR CRY 5
  

Последний человек на Земле / The Last Man on Earth / Сезон: 1 / Серии 1-13 из 13 (Фил Лорд / Phil Lord, Кристофер Миллер / Christopher Miller, Питер Атенсио / Peter Atencio) [2015, США, фантастика, боевик, комедия, WEB-DLRip] MVO [BaibaKo] pb.wtf

Последний человек на Земле через торрент pb.wtf

Размер: 3.87 GB | Добавлен: 5 лет 6 мес. назад | Торрент скачан:373 раза
Скачать  

10-03-2015 02:18 Последний человек на Земле Скачать торрент  

Последний человек на Земле / The Last Man on Earth


  • Год выпуска: 2015
  • Страна: США
  • Жанр: фантастика, боевик, комедия
  • Продолжительность: 00:23:19 (Серия)
  • Перевод: Профессиональный многоголосый закадровый) [BaibaKo]

  • Режиссер: Фил Лорд / Phil Lord, Кристофер Миллер / Christopher Miller, Питер Атенсио / Peter Atencio
  • В ролях:

    Уилл Форте (Phil Miller), Кристен Шаал (Carol Pilbasian), Клеопатра Коулмэн (Erica), Дженьюэри Джонс (Melissa), Мэл Родригез (Todd), Александра Даддарио (Victoria), Patti Forte (Patti Miller)

  • Описание:
    Фил Миллер когда-то был просто обычным парнем, который любил свою семью и ненавидел свою работу в банке - теперь он последняя надежда человечества. Найдет ли он когда-нибудь другого живого человека на планете?
  • Рейтинг:



  • Качество: WEB-DLRip
  • Формат: :MPEG-4
  • Видео кодек: AVC
  • Аудио кодек: AAC (LC)
  • Видео: 1536 Кбит/сек, 720*400 (16:9), в 23,976 кадра/сек, AVC
  • Аудио №1: Русский 163 Кбит/сек, 48,0 КГц, 2 канала, AAC (LC)
  • Аудио №2: Английский 163 Кбит/сек, 48,0 КГц, 2 канала, AAC (LC)
  • Релиз от: GEKADOL

    Код:

    Внимание! Раздача ведётся путём добавления новых серий; при каждом добавлении создаётся новый торрент. Чтобы начать докачку новой серии, пользователям необходимо сделать следующее:
    (1) остановить скачивание,
    (2) удалить старый торрент у себя из клиента (старые серии удалять не надо),
    (3) скачать новый торрент и запустить его у себя в клиенте вместо старого, при этом указать клиенту путь в старую папку куда и должно происходить скачивание новых серий.
    Ваш клиент при этом должен произвести хеширование (проверку) старой папки (если не производит сам - помогите ему сделать это), и будет докачивать только те серии которых у вас ещё нет. Старые серии при этом не удаляются, а продолжают раздаваться!
    Eсли вы уже удалили старые серии, то предотвратить повторную закачку старых серий можно, отжав галочку в соответствующих местах при запуске нового торрента. По возможности, желательно не удалять старые серии как можно дольше чтобы релизёр не столько продолжал раздавать старые серии, а смог сконцентрироваться на новых.


    Код:

    Общее
    Полное имя                               : I:\The.Last.Man.On.Earth.s01.WEB-DLRip.x264.BaibaKo\The.Last.Man.On.Earth.s01e04.WEB-DLRip.x264.Rus.Eng.BaibaKo.tv.mp4
    Формат                                   : MPEG-4
    Профиль формата                          : Base Media
    Идентификатор кодека                     : isom
    Размер файла                             : 290 Мбайт
    Продолжительность                        : 21 м.
    Режим общего битрейта                    : Переменный
    Общий поток                              : 1866 Кбит/сек
    Дата кодирования                         : UTC 2015-03-17 00:31:50
    Дата пометки                             : UTC 2015-03-17 00:31:50

    Видео
    Идентификатор                            : 1
    Формат                                   : AVC
    Формат/Информация                        : Advanced Video Codec
    Профиль формата                          : Baseline@L3.0
    Параметр CABAC формата                   : Нет
    Параметр ReFrames формата                : 3 кадра
    Идентификатор кодека                     : avc1
    Идентификатор кодека/Информация          : Advanced Video Coding
    Продолжительность                        : 21 м.
    Продолжительность оригинала              : 21 м.
    Битрейт                                  : 1536 Кбит/сек
    Максимальный битрейт                     : 5621 Кбит/сек
    Ширина                                   : 720 пикселей
    Высота                                   : 400 пикселей
    Соотношение сторон                       : 16:9
    Режим частоты кадров                     : Переменный
    Частота кадров                           : 23,976 кадра/сек
    Минимальная частота кадров               : 23,974 кадра/сек
    Максимальная частота кадров              : 23,981 кадра/сек
    Цветовое пространство                    : YUV
    Субдискретизация насыщенности            : 4:2:0
    Битовая глубина                          : 8 бит
    Тип развёртки                            : Прогрессивная
    Бит/(Пиксели*Кадры)                      : 0.222
    Размер потока                            : 239 Мбайт (82%)
    Размер потока оригинала                  : 239 Мбайт (82%)
    Библиотека кодирования                   : x264 core 142 r2479 dd79a61
    Настройки программы                      : cabac=0 / ref=3 / deblock=1:0:0 / analyse=0x1:0x111 / me=hex / subme=7 / psy=1 / psy_rd=1.00:0.00 / mixed_ref=1 / me_range=16 / chroma_me=1 / trellis=1 / 8x8dct=0 / cqm=0 / deadzone=21,11 / fast_pskip=1 / chroma_qp_offset=-2 / threads=12 / lookahead_threads=2 / sliced_threads=0 / nr=0 / decimate=1 / interlaced=0 / bluray_compat=0 / constrained_intra=0 / bframes=0 / weightp=0 / keyint=240 / keyint_min=24 / scenecut=40 / intra_refresh=0 / rc_lookahead=40 / rc=2pass / mbtree=1 / bitrate=1536 / ratetol=1.0 / qcomp=0.60 / qpmin=0 / qpmax=69 / qpstep=4 / cplxblur=20.0 / qblur=0.5 / vbv_maxrate=10000 / vbv_bufsize=10000 / nal_hrd=none / filler=0 / ip_ratio=1.40 / aq=1:1.00
    Дата пометки                             : UTC 2015-03-17 00:31:56
    Основные цвета                           : BT.709
    Характеристики трансфера                 : BT.709
    Коэффициенты матрицы                     : BT.709

    Аудио #1
    Идентификатор                            : 2
    Формат                                   : AAC
    Формат/Информация                        : Advanced Audio Codec
    Профиль формата                          : LC
    Идентификатор кодека                     : 40
    Продолжительность                        : 21 м.
    Вид битрейта                             : Переменный
    Битрейт                                  : 163 Кбит/сек
    Максимальный битрейт                     : 201 Кбит/сек
    Каналы                                   : 2 канала
    Расположение каналов                     : Front: L R
    Частота                                  : 48,0 КГц
    Метод сжатия                             : С потерями
    Размер потока                            : 25,3 Мбайт (9%)
    Язык                                     : Russian
    Дата кодирования                         : UTC 2015-03-17 00:31:53
    Дата пометки                             : UTC 2015-03-17 00:31:56

    Аудио #2
    Идентификатор                            : 3
    Формат                                   : AAC
    Формат/Информация                        : Advanced Audio Codec
    Профиль формата                          : LC
    Идентификатор кодека                     : 40
    Продолжительность                        : 21 м.
    Вид битрейта                             : Переменный
    Битрейт                                  : 163 Кбит/сек
    Максимальный битрейт                     : 225 Кбит/сек
    Каналы                                   : 2 канала
    Расположение каналов                     : Front: L R
    Частота                                  : 48,0 КГц
    Метод сжатия                             : С потерями
    Размер потока                            : 25,3 Мбайт (9%)
    Язык                                     : English
    Дата кодирования                         : UTC 2015-03-17 00:31:55
    Дата пометки                             : UTC 2015-03-17 00:31:56


    Скриншоты:
    скриншот   скриншот   скриншот   скриншот   скриншот  
    скриншот  

    Раздача ведётся путём добавления новых серий. Добавлена 13 серия (05.05.2015).Просьба перекачать торрент файл.

    pb.wtf



  • Скачать Последний человек на Земле через торрент http://i58.fastpic.ru/big/2015/0310/0f/26ff9e20bd5887f9be8a61e79777620f.jpg Скачать фильм Последний человек на Земле через торрент бесплантно в хорошем качестве Описание: Фил Миллер когда-то был просто обычным парнем, который любил свою семью и ненавидел свою работу в банке - теперь он последняя ... 9.6 10 52
    Info! Золотая раздача, скачанное не засчитывается.
    Торрент: Зарегистрирован [2015-05-05 11:15] · скачан: 373 раз
    Статус: √ проверено
    Размер: 3.87 GB
    Как cкачать? Как скачать Последний человек на Земле через торрент | qTorrent

    % Раздел Тема Автор DL S | L
    Зарубежные сериалы [ 9.84 GB ] Последний человек на Земле / The Last Man on Earth / Сезон: 1 / Серии: 1-13 из 13 [2015 WEB-DL 720p] DVO [Кубик в Кубе] + Original Messa-fan Скачать
    1 | 0


    Последний раз редактировалось: GEKADOL (2015-05-05 11:15), всего редактировалось 10 раз(а)

    28-11-2019 20:33  

    Отключить всю рекламу на сайте

    17-03-2015 05:40 Последний человек на Земле Скачать торрент  

    Тут только 3 серии, 4-й нет.pb.wtf



    17-03-2015 05:55 Последний человек на Земле Скачать торрент  

    Sairoxx_1984 писал(а):

    Тут только 3 серии, 4-й нет.

    Нажмите кнопку список файлов и посмотрите) Ну чтоб вас не затруднять вот) скриншот  pb.wtf



    17-03-2015 06:28 Последний человек на Земле Скачать торрент  

    GEKADOL писал(а):

    Sairoxx_1984 писал(а):

    Тут только 3 серии, 4-й нет.

    Нажмите кнопку список файлов и посмотрите) Ну чтоб вас не затруднять вот) скриншот  

    Точно, вспомнил. Там же в первой серии два эпизода. Все разобрался, сорри.pb.wtf



    17-03-2015 07:17 Последний человек на Земле Скачать торрент  

    Sairoxx_1984 писал(а):

    GEKADOL писал(а):

    Sairoxx_1984 писал(а):

    Тут только 3 серии, 4-й нет.

    Нажмите кнопку список файлов и посмотрите) Ну чтоб вас не затруднять вот) скриншот  

    Точно, вспомнил. Там же в первой серии два эпизода. Все разобрался, сорри.

    pb.wtf



    17-03-2015 10:01 Последний человек на Земле Скачать торрент  

    забавный сериалчег кстати))pb.wtf



    25-03-2015 02:32 Последний человек на Земле Скачать торрент  

    Норм сериал! Спасибо!pb.wtf



    25-03-2015 03:35 Последний человек на Земле Скачать торрент  

    Sheyker писал(а):

    Норм сериал! Спасибо!

    Не за что) pb.wtf



    16-04-2015 05:58 Последний человек на Земле Скачать торрент  

    10 серия добавлена 16.03.2015? Месяц не перепутали?pb.wtf



    21-04-2015 10:25 Последний человек на Земле Скачать торрент  

    gor777 писал(а):

    10 серия добавлена 16.03.2015? Месяц не перепутали?

    Нет) проверял смотрит на это кто или нет) спасибо что заметили) pb.wtf



    21-05-2015 19:54 Последний человек на Земле Скачать торрент  

    а дальше?pb.wtf



      Дорогой пользователь! Огромная просьба, поблагодарите релизера, оцените раздачу и оставьте свои комментарий, если Вы скачали Последний человек на Земле через торрент бесплатно! Внесите свою лепту в развитие PiratBit!
      Комментировать посты могут только пользователи прошедшие не сложную регистрацию
      Показать сообщения:    

      Последний человек на Земле через торрент
      Скачать бесплатно Последний человек на Земле
      Последний человек на Земле скачать торрент
      Последний человек на Земле смотреть онлайн
      Cкачать фильм Последний человек на Земле бесплатно
      Последний человек на Земле скачать торрент в хорошем качестве
      Последний человек на Земле смотреть онлайн бесплатно в хорошем качестве


      Вы не можете начинать темы
      Вы не можете отвечать на сообщения
      Вы не можете редактировать свои сообщения
      Вы не можете удалять свои сообщения
      Вы не можете голосовать в опросах
      Вы не можете прикреплять файлы к сообщениям
      Вы можете скачивать файлы