новый адрес пиратбит piratbit
MEGA NEWS Получи личный уникальный адрес сайта и защити себя от блокировок. Внимание количество ограничено!!!

iTunes

1+1

iTunes

мы

iTunes

1

iTunes

Чернобыль

iTunes

Ральф против интернета

Лицензия

ПШазам

Лицензия

Игра престолов

Лицензия

30
pack

ВАЖНО

!!Акция!!

Alien_RageХит недели

RePack

Resident Evil 21

ИГРА 18+

pack

RePack

Metro:Exodus

!!Акция!!

Alien_Rage

RePack

fifa19

RePack

Assassins Creed: Odyssey

RePack

NEED FOR SPEED™ PAYBACK

3 сезон

9 сезон

Бесстыжие 9 сезон

Все сериалы

все сериалы на PB.wtf

RePack

FAR CRY 5
Ребята, катастрофически не хватает 1900р. для оплаты серверов за АВГУСТ (всвязи с блокировками трафик упал в 3 раза), 1-2р., выручайте.
  

Пианино / The Piano (Джейн Кэмпион) [1993, драма, мелодрама, BDRip-AVC] 2 x DVO, AVO pb.wtf

Пианино через торрент pb.wtf

Раздают: 1 [ 0 KB/s ]
Размер: 3.75 GB | Добавлен: 4 года 7 мес. назад | Торрент скачан:18 раз
Скачать  

10-03-2015 07:00 Пианино Скачать торрент  

Пианино / The Piano

Год выпуска: 1993
Страна: Франция, Австралия, Новая Зеландия
Жанр: драма, мелодрама
Продолжительность: 02:00:51
Перевод: Профессиональный двухголосый, авторский
Субтитры: русские, английские (для слабослышащих)

Режиссёр: Джейн Кэмпион

В ролях: Холли Хантер, Харви Кейтель, Сэм Нилл, Анна Пакуин, Керри Уолкер, Женевьева Лемон, Танджия Бэйкер, Йен Мун, Питер Деннетт, Те Уотануи Скипуиз, Пит Смит, Брюс Олпресс, Клифф Кёртис, Карла Рупуа, Махина Тунуи, Хори Ахипене, Гордон Хэтфилд, Мери Бойнтон, Кирстен Бэтли, Таня Берни, Энни Эдвардс, Харина Хааре, Кристина Харимэйт, Стив Канута, П.Дж. Караурия, Сонни Кирикири, Ален Макиха, Грег Мэйор, Нил Мика Гудселл, Гай Моана, Джозеф Отими, Глайнис Параха, Рики Пикеринг, Эру Потака-Дьюис, Лиэн Ранги Генри, Хьюхана Рева, Тамати Райс, Паора Шарплс, Джордж Смоллмэн

Описание: Середина 19-го века. Немая Ада вместе с маленькой дочерью и любимым пианино покидает родную Шотландию и переезжает на другой конец света, в Новую Зеландию, где её ждёт будущий муж Стюарт. Он отказывается доставить в дом пианино, которое остаётся брошенным на берегу. Ада, не говорящая с шести лет, всё же показывает мужу всю глубину своего гнева. Для этой сильной женщины молчание далеко не знак согласия. Сосед Стюарта Бэйнс, похожий на дикаря, привозит пианино, заменяющее Аде голос, к себе домой. Она может получить его назад, но только если будет приходить к Бэйнсу домой и давать ему уроки музыки - по числу клавиш. Эти уроки заведут их в пучину роковых страстей…



Качество: BDRip-AVC Сравнение с исходником
Формат: MKV
Видео кодек: H.264
Видео: 3592 Кбит/с, 1024x576, 23.976 кадра/с, 0.254 bpp
Аудио 1: русский, 48 kHz, AC3, 2 ch, ~192 kbps avg [Профессиональный двухголосый, HTB+]
Аудио 2: русский, 48 kHz, AC3, 2 ch, ~192 kbps avg [Профессиональный двухголосый, OPT]
Аудио 3: русский, 48 kHz, AC3, 2 ch, ~192 kbps avg [Авторский одноголосый, Сергей Кузнецов]
Аудио 4: английский, 48 kHz, AC3, 2 ch, ~384 kbps avg [Оригинал]

Имеются неименованные главы/чаптеры.
11 премий Австралийского киноинститута — за фильм, режиссуру, оригинальный сценарий, главные мужскую и женскую роли, работу оператора, художника (Эндрю МакЭлпайн — Andrew McAlpine), костюмы (Джанет Пэттерсон — Janet Patterson), музыку, монтаж (Вероника Жене — Veronika Jenet) и звук (Ли Смит, Тони Джонсон, Гезин Крег, Питер Тауненд, Аннабелл Шиэн — Lee Smith, Tony Johnson, Gethin Creagh, Peter Townend, Annabelle Sheehan), приз Национального совета обозревателей в США за главную женскую роль,
премии «Независимый дух» в США, «Роберт» в Дании и «Золотой жук» в Швеции за лучший иностранный фильм, «Бодиль» в Дании за лучшую неамериканскую ленту, главный приз на операторском фестивале «Камеримаж», премия «Кинема дзюнпо» в Японии за лучшую иностранную картину по итогам 1994 года.

Оскар, 1994 год
Победитель (3):
Лучшая женская роль (Холли Хантер)
Лучшая женская роль второго плана (Анна Пэкуин)
Лучший сценарий

Номинации (5):
Лучший фильм
Лучший режиссер (Джейн Кэмпион)
Лучшая работа оператора
Лучшие костюмы
Лучший монтаж

Золотой глобус, 1994 год
Победитель (1):
Лучшая женская роль (драма) (Холли Хантер)

Номинации (5):
Лучший фильм (драма)
Лучшая женская роль второго плана (Анна Пэкуин)
Лучший режиссер (Джейн Кэмпион)
Лучший сценарий
Лучший саундтрек

Британская академия, 1994 год
Победитель (3):
Лучшая женская роль (Холли Хантер)
Лучшие костюмы
Лучшая работа художника-постановщика

Номинации (7):
Лучший фильм
Лучший оригинальный сценарий
Лучшая работа оператора
Лучший звук
Лучший монтаж
Лучший саундтрек
Премия имени Дэвида Лина за достижения в режиссуре (Джейн Кэмпион)

Сезар, 1994 год
Победитель (1):
Лучший фильм на иностранном языке

Каннский кинофестиваль, 1993 год
Победитель (2):
Золотая пальмовая ветвь
Серебряная премия за лучшую женскую роль (Холли Хантер)
frame I:1008 Avg QP:18.61 size: 70842
frame P:33534 Avg QP:20.00 size: 33285
frame B:139310 Avg QP:21.91 size: 15402

Общее
Уникальный идентификатор : 213886250044581322791262094007130324373 (0xA0E8FE4D3122D2488A1E228D60FEFD95)
Полное имя : D:VideoPiano.1993.BDRip.AVC.mkv
Формат : Matroska
Версия формата : Version 4 / Version 2
Размер файла : 3,75 Гбайт
Продолжительность : 2 ч. 0 м.
Общий поток : 4448 Кбит/сек
Дата кодирования : UTC 2015-03-09 16:01:24
Программа кодирования : mkvmerge v7.7.0 ('Six Voices') 64bit built on Feb 28 2015 23:39:33
Библиотека кодирования : libebml v1.3.1 + libmatroska v1.4.2
DURATION : 01:54:53.719000000
NUMBER_OF_FRAMES : 985
NUMBER_OF_BYTES : 31131
_STATISTICS_WRITING_APP : mkvmerge v7.7.0 ('Six Voices') 64bit built on Feb 28 2015 23:39:33
_STATISTICS_WRITING_DATE_UTC : 2015-03-09 16:01:24
_STATISTICS_TAGS : BPS DURATION NUMBER_OF_FRAMES NUMBER_OF_BYTES

Видео
Идентификатор : 1
Формат : AVC
Формат/Информация : Advanced Video Codec
Профиль формата : High@L4.1
Параметр CABAC формата : Да
Параметр ReFrames формата : 9 кадров
Идентификатор кодека : V_MPEG4/ISO/AVC
Продолжительность : 2 ч. 0 м.
Битрейт : 3592 Кбит/сек
Ширина : 1024 пикселя
Высота : 576 пикселей
Соотношение сторон : 16:9
Режим частоты кадров : Постоянный
Частота кадров : 23,976 кадра/сек
Цветовое пространство : YUV
Субдискретизация насыщенности : 4:2:0
Битовая глубина : 8 бит
Тип развёртки : Прогрессивная
Бит/(Пиксели*Кадры) : 0.254
Размер потока : 3,03 Гбайт (81%)
Заголовок : BDRip -- STarankov
Библиотека кодирования : x264 core 142 r2431 ac76440
Настройки программы : cabac=1 / ref=9 / deblock=1:-2:-2 / analyse=0x3:0x113 / me=umh / subme=9 / psy=1 / psy_rd=1.00:0.15 / mixed_ref=1 / me_range=32 / chroma_me=1 / trellis=2 / 8x8dct=1 / cqm=0 / deadzone=21,11 / fast_pskip=1 / chroma_qp_offset=-3 / threads=6 / lookahead_threads=1 / sliced_threads=0 / nr=0 / decimate=1 / interlaced=0 / bluray_compat=0 / constrained_intra=0 / bframes=8 / b_pyramid=2 / b_adapt=2 / b_bias=0 / direct=3 / weightb=1 / open_gop=0 / weightp=2 / keyint=230 / keyint_min=23 / scenecut=40 / intra_refresh=0 / rc_lookahead=40 / rc=crf / mbtree=0 / crf=20.0 / qcomp=0.60 / qpmin=0 / qpmax=69 / qpstep=4 / vbv_maxrate=40000 / vbv_bufsize=50000 / crf_max=0.0 / nal_hrd=none / filler=0 / ip_ratio=1.40 / pb_ratio=1.30 / aq=1:1.00
Язык : English
Default : Да
Forced : Нет
DURATION : 02:00:51.077000000
NUMBER_OF_FRAMES : 173852
NUMBER_OF_BYTES : 3333261886
_STATISTICS_WRITING_APP : mkvmerge v7.7.0 ('Six Voices') 64bit built on Feb 28 2015 23:39:33
_STATISTICS_WRITING_DATE_UTC : 2015-03-09 16:01:24
_STATISTICS_TAGS : BPS DURATION NUMBER_OF_FRAMES NUMBER_OF_BYTES

Аудио #1
Идентификатор : 2
Формат : AC-3
Формат/Информация : Audio Coding 3
Расширение режима : CM (complete main)
Параметр Endianness формата : Big
Идентификатор кодека : A_AC3
Продолжительность : 2 ч. 0 м.
Вид битрейта : Постоянный
Битрейт : 192 Кбит/сек
Каналы : 2 канала
Расположение каналов : Front: L R
Частота : 48,0 КГц
Битовая глубина : 16 бит
Метод сжатия : С потерями
Размер потока : 166 Мбайт (4%)
Заголовок : DVO (А.Рахленко и Н.Казначеева)
Язык : Russian
Default : Да
Forced : Нет

Аудио #2
Идентификатор : 3
Формат : AC-3
Формат/Информация : Audio Coding 3
Расширение режима : CM (complete main)
Параметр Endianness формата : Big
Идентификатор кодека : A_AC3
Продолжительность : 2 ч. 0 м.
Вид битрейта : Постоянный
Битрейт : 192 Кбит/сек
Каналы : 2 канала
Расположение каналов : Front: L R
Частота : 48,0 КГц
Битовая глубина : 16 бит
Метод сжатия : С потерями
Размер потока : 166 Мбайт (4%)
Заголовок : DVO (OPT)
Язык : Russian
Default : Нет
Forced : Нет

Аудио #3
Идентификатор : 4
Формат : AC-3
Формат/Информация : Audio Coding 3
Расширение режима : CM (complete main)
Параметр Endianness формата : Big
Идентификатор кодека : A_AC3
Продолжительность : 2 ч. 0 м.
Вид битрейта : Постоянный
Битрейт : 192 Кбит/сек
Каналы : 2 канала
Расположение каналов : Front: L R
Частота : 48,0 КГц
Битовая глубина : 16 бит
Метод сжатия : С потерями
Размер потока : 166 Мбайт (4%)
Заголовок : AVO (Сергей Кузнецов)
Язык : Russian
Default : Нет
Forced : Нет

Аудио #4
Идентификатор : 5
Формат : AC-3
Формат/Информация : Audio Coding 3
Расширение режима : CM (complete main)
Параметр Endianness формата : Big
Идентификатор кодека : A_AC3
Продолжительность : 2 ч. 0 м.
Вид битрейта : Постоянный
Битрейт : 192 Кбит/сек
Каналы : 2 канала
Расположение каналов : Front: L R
Частота : 48,0 КГц
Битовая глубина : 16 бит
Метод сжатия : С потерями
Размер потока : 166 Мбайт (4%)
Заголовок : Original
Язык : English
Default : Нет
Forced : Нет

Текст #1
Идентификатор : 6
Формат : UTF-8
Идентификатор кодека : S_TEXT/UTF8
Идентификатор кодека/Информация : UTF-8 Plain Text
Заголовок : русский
Язык : Russian
Default : Нет
Forced : Нет

Текст #2
Идентификатор : 7
Формат : UTF-8
Идентификатор кодека : S_TEXT/UTF8
Идентификатор кодека/Информация : UTF-8 Plain Text
Заголовок : английский (для слабослышащих)
Default : Нет
Forced : Нет

Меню
00:00:00.000 : :Chapter 01
00:10:37.886 : :Chapter 02
00:16:26.777 : :Chapter 03
00:24:25.088 : :Chapter 04
00:32:31.074 : :Chapter 05
00:36:40.406 : :Chapter 06
00:40:16.330 : :Chapter 07
00:47:26.844 : :Chapter 08
00:50:18.765 : :Chapter 09
00:55:00.005 : :Chapter 10
01:04:02.129 : :Chapter 11
01:08:51.836 : :Chapter 12
01:20:49.928 : :Chapter 13
01:30:04.189 : :Chapter 14
01:43:29.203 : :Chapter 15
01:54:01.918 : :Chapter 16
02:00:50.826 : :Chapter 17
pb.wtf



Скачать Пианино через торрент http://i68.fastpic.ru/big/2014/1011/87/cc83d9ae90a1e8dadd66a83f05759687.jpg Скачать фильм Пианино через торрент бесплантно в хорошем качестве Описание: Середина 19-го века. Немая Ада вместе с маленькой дочерью и любимым пианино покидает родную Шотландию и переезжает на другой ... 5 10 1
Торрент: Зарегистрирован [2015-03-10 07:00] · скачан: 18 раз
Статус: √ проверено
Размер: 3.75 GB
Как cкачать? Как скачать Пианино через торрент | qTorrent

% Раздел Тема Автор DL S | L
Фильмы [HD 720p, 1080p] (Хороший звук DUB, MVO) [ 5.8 GB ] Пианино / The Piano [1993 музыка BDRip 720p by msltel] 2 x DVO AVO msltel Скачать
2 | 0
Фильмы [HD 720p, 1080p] (Хороший звук DUB, MVO) [ 16.23 GB ] Пианино / The Piano [1993 музыка BDRip 1080p by msltel] 2 x DVO AVO msltel Скачать
1 | 0


>> Регистрируемся здесь <<






Отзывы и комментарии о схеме читаем и пишем здесь: ---> Отзывы и комментарии о схеме

Новые благодарочки в телеграм довольных пользователей:
скриншот   скриншот   скриншот   скриншот   скриншот
    Дорогой пользователь! Огромная просьба, поблагодарите релизера, оцените раздачу и оставьте свои комментарий, если Вы скачали Пианино через торрент бесплатно! Внесите свою лепту в развитие PiratBit!
    Комментировать посты могут только пользователи прошедшие не сложную регистрацию
    Показать сообщения:    

    Пианино через торрент
    Скачать бесплатно Пианино
    Пианино скачать торрент
    Пианино смотреть онлайн
    Cкачать фильм Пианино бесплатно
    Пианино скачать торрент в хорошем качестве
    Пианино смотреть онлайн бесплатно в хорошем качестве


    Вы не можете начинать темы
    Вы не можете отвечать на сообщения
    Вы не можете редактировать свои сообщения
    Вы не можете удалять свои сообщения
    Вы не можете голосовать в опросах
    Вы не можете прикреплять файлы к сообщениям
    Вы можете скачивать файлы