Ссылка на приватное зеркало нашего сайта всего за 1$. Внимание количество ограничено!!!

2 сезон

iTunes

1 сезон

1

2 сезон

2 сезон

iTunes

1 сезон

RePack

30

Ultimate

ВАЖНО

ИГРА 18+

pack

RePack

MK11
pack

Забери бонус

RePack

jed

!!Акция!!

Alien_Rage

RePack

fifa19

RePack

Assassins Creed: Odyssey

RePack

NEED FOR SPEED™ PAYBACK

4 сезон

9 сезон

Бесстыжие 9 сезон

Все сериалы

все сериалы на PB.wtf

RePack

FAR CRY 5
  

Богатые / The Riches / Сезон: 1/ Серии: 1-13 (13) (Питер О’Фаллон, Гай Ферленд, Брайан Кирк) [2007, США, драма, комедия, криминал, WEB-DL 720p] MVO [Первый канал] + Original pb.wtf

Богатые через торрент pb.wtf

Размер: 20.21 GB | Добавлен: 5 лет 8 мес. назад | Торрент скачан:71 раз
Скачать  

10-03-2015 15:04 Богатые Скачать торрент  

Богатые / The Riches
«It's a wonderful lie»
Год выпуска: 2007
Страна: США
Жанр: драма, комедия, криминал
Продолжительность: 00:58:00
Перевод:
|Профессиональный (многоголосый, закадровый) Первый канал|
Субтитры: русские (Forced), английские

Режиссер: Питер О’Фаллон / Peter O'Fallon, Гай Ферленд / Guy Ferland, Брайан Кирк / Brian Kirk
В ролях: Эдди Иззард (Wayne Malloy), Минни Драйвер (Dahlia Malloy), Шеннон Мари Вудворд (Di Di Malloy), Ноэль Фишер (Cael Malloy), Эйдан Митчелл (Sam Malloy), Тодд Стэшвик (Dale Malloy), Грегг Генри (Hugh Panetta), Марго Мартиндейл (Nina Burns), Брюс Френч (Jim Burns), Николь Хильтц (Ginny Dannegan), Дейдри Генри (Aubrey McDonald), Тереза Хуанг (Kimmie)
Описание:
Дэлия и Вэйн Мэллой, а также трое их детей - бродячие мошенники, члены большого клана «цыган»-кочевников. Дэлия и Вэйн - потенциальные новые Король и Королева лагеря, однако после возвращения Дэлии из тюрьмы выясняется, что главенство уже решено передать сыну прежнего Короля, который тут же начинает притеснять бывших конкурентов. Мэллои крадут деньги из лагеря и уезжают. В дороге они становятся свидетелями и невольными соучастниками дорожной аварии, в которой гибнет чета миллионеров Ричей. Забрав их документы, Мэллои вселяются в их только что купленный дом в престижном районе и решают «украсть чужую американскую мечту» - стать обычными добропорядочными богатыми гражданами США. Но получится ли это у них?

Рейтинг

Качество: WEB-DL 720p
Формат: MKV
Видео кодек: AVC
Аудио кодек: AC3
Видео: AVC, 1280x718 (16:9), 3973 kbps, 23,976 fps, 0,180 bpp
Аудио №1: русский / AC3 / 2.0 / 48 kHz / 160 kbps / 16 bit | MVO Первый канал|
Аудио №2: английский / AC3 / 5.1 / 48 kHz / 384 kbps / 16 bit
Оформление: Messa-fan

Код:

General
Unique ID                                : 209709127042531952023697542024768825707 (0x9DC4823CAB8A47F1B944ED994A3CA96B)
Complete name                            : The.Riches.S01.720p.WEB-DL.Rus.Eng.HDCLUB\The.Riches.S01E01.The.Pilot.720p.WEB-DL.Rus.Eng.HDCLUB.mkv
Format                                   : Matroska
Format version                           : Version 4 / Version 2
File size                                : 1.87 GiB
Duration                                 : 58mn 10s
Overall bit rate                         : 4 609 Kbps
Movie name                               : The Riches s01e01 (The Pilot) - release HDCLUB by messafan
Encoded date                             : UTC 2015-03-01 13:29:05
Writing application                      : mkvmerge v6.7.0 ('Back to the Ground') 64bit built on Jan  8 2014 15:10:52
Writing library                          : libebml v1.3.0 + libmatroska v1.4.1

Video
ID                                       : 1
Format                                   : AVC
Format/Info                              : Advanced Video Codec
Format profile                           : High@L3.1
Format settings, CABAC                   : No
Format settings, ReFrames                : 2 frames
Codec ID                                 : V_MPEG4/ISO/AVC
Duration                                 : 58mn 10s
Bit rate                                 : 3 974 Kbps
Width                                    : 1 280 pixels
Height                                   : 718 pixels
Display aspect ratio                     : 16:9
Frame rate                               : 23.976 fps
Color space                              : YUV
Chroma subsampling                       : 4:2:0
Bit depth                                : 8 bits
Scan type                                : Progressive
Bits/(Pixel*Frame)                       : 0.180
Stream size                              : 1.61 GiB (86%)
Language                                 : English
Default                                  : Yes
Forced                                   : No
Color primaries                          : BT.709-5, BT.1361, IEC 61966-2-4, SMPTE RP177
Transfer characteristics                 : BT.709-5, BT.1361
Matrix coefficients                      : BT.709-5, BT.1361, IEC 61966-2-4 709, SMPTE RP177

Audio #1
ID                                       : 2
Format                                   : AC-3
Format/Info                              : Audio Coding 3
Mode extension                           : CM (complete main)
Codec ID                                 : A_AC3
Duration                                 : 58mn 10s
Bit rate mode                            : Constant
Bit rate                                 : 160 Kbps
Channel(s)                               : 2 channels
Channel positions                        : Front: L R
Sampling rate                            : 48.0 KHz
Bit depth                                : 16 bits
Compression mode                         : Lossy
Stream size                              : 66.6 MiB (3%)
Language                                 : Russian
Default                                  : Yes
Forced                                   : No

Audio #2
ID                                       : 3
Format                                   : AC-3
Format/Info                              : Audio Coding 3
Mode extension                           : CM (complete main)
Codec ID                                 : A_AC3
Duration                                 : 58mn 10s
Bit rate mode                            : Constant
Bit rate                                 : 384 Kbps
Channel(s)                               : 6 channels
Channel positions                        : Front: L C R, Side: L R, LFE
Sampling rate                            : 48.0 KHz
Bit depth                                : 16 bits
Compression mode                         : Lossy
Stream size                              : 160 MiB (8%)
Language                                 : English
Default                                  : No
Forced                                   : No

Text #1
ID                                       : 4
Format                                   : UTF-8
Codec ID                                 : S_TEXT/UTF8
Codec ID/Info                            : UTF-8 Plain Text
Title                                    : Forced
Language                                 : Russian
Default                                  : Yes
Forced                                   : No

Text #2
ID                                       : 5
Format                                   : UTF-8
Codec ID                                 : S_TEXT/UTF8
Codec ID/Info                            : UTF-8 Plain Text
Language                                 : English
Default                                  : No
Forced                                   : No


pb.wtf



Скачать Богатые через торрент http://i58.fastpic.ru/big/2015/0310/28/05c7c7badeade19f8dcc9ab668574f28.jpg Скачать фильм Богатые через торрент бесплантно в хорошем качестве Описание: Дэлия и Вэйн Мэллой, а также трое их детей - бродячие мошенники, члены большого клана «цыган»-кочевников. Дэлия и Вэйн - ... 7.8 10 4
Info! Золотая раздача, скачанное не засчитывается.
Торрент: Зарегистрирован [2015-03-10 15:04] · скачан: 71 раз
Статус: √ проверено
Размер: 20.21 GB
Как cкачать? Как скачать Богатые через торрент | qTorrent

28-11-2019 20:33  

Отключить всю рекламу на сайте

    Дорогой пользователь! Огромная просьба, поблагодарите релизера, оцените раздачу и оставьте свои комментарий, если Вы скачали Богатые через торрент бесплатно! Внесите свою лепту в развитие PiratBit!
    Комментировать посты могут только пользователи прошедшие не сложную регистрацию
    Показать сообщения:    

    Богатые через торрент
    Скачать бесплатно Богатые
    Богатые скачать торрент
    Богатые смотреть онлайн
    Cкачать фильм Богатые бесплатно
    Богатые скачать торрент в хорошем качестве
    Богатые смотреть онлайн бесплатно в хорошем качестве


    Вы не можете начинать темы
    Вы не можете отвечать на сообщения
    Вы не можете редактировать свои сообщения
    Вы не можете удалять свои сообщения
    Вы не можете голосовать в опросах
    Вы не можете прикреплять файлы к сообщениям
    Вы можете скачивать файлы