2 сезон

iTunes

MVO

1

2 сезон

iTunes

iTunes

1 сезон

RePack

30

Новинка

ВАЖНО

ИГРА 18+

pack

RePack

MK11
pack

Легкие деньги

RePack

jed

RePack

fifa19

RePack

RDR2

RePack

NEED FOR SPEED™ PAYBACK

4 сезон

9 сезон

Бесстыжие 9 сезон

Все сериалы

все сериалы на PB.wtf

RePack

FAR CRY 5

Anonymous, добрый день, мы не успеваем собрать деньги на оплату серверов за декабрь и январь, помогите нам пожалуйста в это трудное время. В качестве благодарности мы отключим Вам всю рекламу на сайте (укажите свой ник в строку Ваше имя)!

×
  
Magnet ссылка

Вердикт / Het Vonnis (Ян Верхейен ) [2013, драма, HDRip, Любительский (двухголосый) [den904, DeadSno] pb.wtf

Вердикт через торрент pb.wtf

Размер: 1.37 GB | Добавлен: 5 лет 10 мес. назад | Торрент скачан:184 раза
Скачать  

10-03-2015 15:26 Вердикт Скачать торрент  


Вердикт / Het Vonnis


ИНФОРМАЦИЯ:
Год выпуска:2013
Страна: Бельгия
Жанр: драма
Продолжительность: 01:47:30
Перевод: Любительский (двухголосый) [den904, DeadSno]
Режиссер: Ян Верхейен

В Ролях:


Коэн Де Боу (Luc Segers), Йохан Лейзен (Jan De Cock), Верле Батенс (Meester Teugels), Яппе Клас (Procureur-Generaal Vanderbiest), Jo De Meyere (Karel Puype), Крис Ломме (Louise Puype), Хендрик Эртз (Kenny De Groot), Вивиан де Мюйнк (Rechter Van Rillaer), Воутер Хендрикс (Inspecteur Vercauteren), Дирк Тёйпенс (Walter Veldeman), Йок Девинк (Ella De Graeve), Нелл Каттриссе (Anna Segers)

ОПИСАНИЕ:
У Люка Сегерса было все — успешная карьера инженера в престижной фирме, красивая и любящая жена Элла и дочка Анна. Однажды вечером, возвращаясь домой после работы, они остановились на заправке. Пока муж заправлял машину, жена ушла купить хлеб в магазине неподалеку. И тогда мир Люка Сегерса рухнул, словно карточный домик. Все, что у него было, исчезло, а вскоре само его будущее покрылось туманом неизвестности.

  • Мировая премьера:23 августа 2013

    ТЕХ.ДАННЫЕ:
    Качество: HDRip
    Формат: AVI
    Видео кодек: XviD
    Аудио кодек: AC3
    Видео: XviD, 720x304 (2.35:1), 1362 kbps, 25 fps, 0,249 bpp
    Аудио: AC3 / 5.1 / 48 kHz / 448 kbps / 16 bit



    Код:

    General
    Complete name                            : D:\Торенты\Verdict.2013.DVO.HDRip.1400Mb.avi
    Format                                   : AVI
    Format/Info                              : Audio Video Interleave
    File size                                : 1.37 GiB
    Duration                                 : 1h 47mn
    Overall bit rate                         : 1 820 Kbps
    Writing application                      : VirtualDubMod 1.5.10.2 (build 2540/release)
    Writing library                          : VirtualDubMod build 2540/release

    Video
    ID                                       : 0
    Format                                   : MPEG-4 Visual
    Format profile                           : Advanced Simple@L5
    Format settings, BVOP                    : 2
    Format settings, QPel                    : No
    Format settings, GMC                     : No warppoints
    Format settings, Matrix                  : Default (MPEG)
    Codec ID                                 : XVID
    Codec ID/Hint                            : XviD
    Duration                                 : 1h 47mn
    Bit rate                                 : 1 363 Kbps
    Width                                    : 720 pixels
    Height                                   : 304 pixels
    Display aspect ratio                     : 2.35:1
    Frame rate                               : 25.000 fps
    Color space                              : YUV
    Chroma subsampling                       : 4:2:0
    Bit depth                                : 8 bits
    Scan type                                : Progressive
    Compression mode                         : Lossy
    Bits/(Pixel*Frame)                       : 0.249
    Stream size                              : 1.02 GiB (75%)
    Writing library                          : XviD 1.2.1 (UTC 2008-12-04)

    Audio
    ID                                       : 1
    Format                                   : AC-3
    Format/Info                              : Audio Coding 3
    Mode extension                           : CM (complete main)
    Codec ID                                 : 2000
    Duration                                 : 1h 47mn
    Bit rate mode                            : Constant
    Bit rate                                 : 448 Kbps
    Channel(s)                               : 6 channels
    Channel positions                        : Front: L C R, Side: L R, LFE
    Sampling rate                            : 48.0 KHz
    Bit depth                                : 16 bits
    Compression mode                         : Lossy
    Stream size                              : 344 MiB (25%)
    Alignment                                : Split accross interleaves
    Interleave, duration                     : 40 ms (1.00 video frame)
    Interleave, preload duration             : 500 ms

    Скриншоты:


    © Оформление by Ворон
    pb.wtf



  • Скачать Вердикт через торрент http://pic.kartinco.top/images/6/ordi9.jpg Скачать фильм Вердикт через торрент бесплантно в хорошем качестве Е:У Люка Сегерса было все — успешная карьера инженера в престижной фирме, красивая и любящая жена Элла и дочка Анна. Однажды вечером, ... 8.8 10 8
    Торрент: Зарегистрирован [2015-03-10 15:26] · скачан: 184 раз
    Статус: √ проверено
    Размер: 1.37 GB
    Как cкачать? Как скачать Вердикт через торрент | UTorrent

    28-11-2019 20:33  

    Отключить всю рекламу на сайте

    11-03-2015 05:37 Вердикт Скачать торрент  

    ну и как?pb.wtf



    11-03-2015 16:04 Вердикт Скачать торрент  

    Как как, драма, жизненная к стати. Зачетная судебная разборка, против судебной системы Бельгии, интригующая картина. Стоит.pb.wtf



      Дорогой пользователь! Огромная просьба, поблагодарите релизера, оцените раздачу и оставьте свои комментарий, если Вы скачали Вердикт через торрент бесплатно! Внесите свою лепту в развитие PiratBit!
      Комментировать посты могут только пользователи прошедшие не сложную регистрацию
      Показать сообщения:    

      Вердикт через торрент
      Скачать бесплатно Вердикт
      Вердикт скачать торрент
      Вердикт смотреть онлайн
      Cкачать фильм Вердикт бесплатно
      Вердикт скачать торрент в хорошем качестве
      Вердикт смотреть онлайн бесплатно в хорошем качестве


      Вы не можете начинать темы
      Вы не можете отвечать на сообщения
      Вы не можете редактировать свои сообщения
      Вы не можете удалять свои сообщения
      Вы не можете голосовать в опросах
      Вы не можете прикреплять файлы к сообщениям
      Вы можете скачивать файлы