Мега распродажа FORZA HORIZON 4 ULTIMATE+ВСЕ DLC+ОНЛАЙН всего за 499р. 349 руб. (супер цена). Внимание количество ограничено!!!

iTunes

1+1

iTunes

мы

iTunes

1

1 сезон

Чернобыль

1 сезон

Ральф против интернета

Лицензия

ПШазам

8 сезон

Игра престолов

Лицензия

30
pack

ВАЖНО

!!Акция!!

Alien_RageХит недели

RePack

Resident Evil 21

ИГРА 18+

pack

RePack

Metro:Exodus

!!Акция!!

Alien_Rage

RePack

fifa19

RePack

Assassins Creed: Odyssey

RePack

NEED FOR SPEED™ PAYBACK

3 сезон

9 сезон

Бесстыжие 9 сезон

Все сериалы

все сериалы на PB.wtf

RePack

FAR CRY 5
Ребята, катастрофически не хватает 2730р. для оплаты серверов за ИЮНЬ (всвязи с блокировками трафик упал в 3 раза), 1-2р., выручайте.
  

Крупная рыба / Big Fish (Тим Бёртон) [2003, фэнтези, драма, приключения, BDRip-AVC] DUB, MVO, DVO, AVO, VO pb.wtf

Крупная рыба через торрент pb.wtf

Размер: 6.19 GB | Добавлен: 4 года 4 мес. назад | Торрент скачан:108 раз
Скачать  

11-03-2015 06:52 Крупная рыба Скачать торрент  

Крупная рыба / Big Fish

Год выпуска: 2003
Страна: США
Жанр: фэнтези, драма, приключения
Продолжительность: 02:05:09
Перевод: дублированный, профессиональный многоголосый, профессиональный двухголосый, авторский, любительский одноголосый
Субтитры: русские, английские (все отдельно)

Режиссёр: Тим Бёртон

В ролях: Эван МакГрегор, Альберт Финни, Билли Крадап, Джессика Лэнг, Хелена Бонем Картер, Элисон Ломан, Роберт Гийом, Марион Котийяр, Мэттью МакГрори, Дэвид Денман, Мисси Пайл, Стив Бушеми, Дэнни ДеВито, Майли Сайрус

Описание: В основу этой приключенческой ленты положен роман Дэниела Уоллеса «Большая рыба: роман мифических пропорций». Умирает отец, о жизни которого сын хочет узнать как можно больше, собирая истории о нём. Сын пытается воссоздать ускользающую жизнь отца в серии легенд и мифов, которые тот придумывает на основе разрозненных фактов. Взлёты и падения в жизни человека в итоге предстают в неожиданном ракурсе...



Качество: BDRip-AVC Сравнение с исходником
Формат: MKV
Видео кодек: H.264
Видео: 2951 Кбит/с, 1024x556, 23.976 кадра/с, 0.216 bpp
Аудио 1: русский, AC3, 448 kbps, 6 ch, 48 kHz [дублированный]
Аудио 2: русский, AC3, 448 kbps, 6 ch, 48 kHz [профессиональный многоголосый]
Аудио 3: русский, AC3, 448 kbps, 6 ch, 48 kHz [профессиональный двухголосый, Tycoon]
Аудио 4: русский, AC3, 448 kbps, 6 ch, 48 kHz [авторский, Андрей Гаврилов]

Отдельные файлы
Аудио: русский, AC3, 448 kbps, 6 ch, 48 kHz [профессиональный двухголосый, Пётр Гланц и Инна Королёва]
Аудио: русский, AC3, 448 kbps, 6 ch, 48 kHz [авторский, Юрий Сербин]
Аудио: русский, AC3, 448 kbps, 6 ch, 48 kHz [авторский, Михаил Чадов]
Аудио: русский, AC3, 448 kbps, 6 ch, 48 kHz [любительский одноголосый, Ронин]
Аудио: английский, AC3, 448 kbps, 6 ch, 48 kHz [оригинал]
Жорж, 2005 год
Номинации (1):
Лучший развлекательный фильм

Оскар, 2004 год
Номинации (1):
Лучший оригинальный саундтрек

Золотой глобус, 2004 год
Номинации (4):
Лучший фильм (комедия или мюзикл)
Лучшая мужская роль второго плана (Альберт Финни)
Лучшая песня — «Man of the Hour»
Лучший саундтрек

Британская академия, 2004 год
Номинации (7):
Лучший фильм
Лучшая мужская роль второго плана (Альберт Финни)
Лучший адаптированный сценарий
Лучшие визуальные эффекты
Лучший грим/прически
Лучшая работа художника-постановщика
Премия имени Дэвида Лина за достижения в режиссуре (Тим Бёртон)

Сатурн, 2004 год
Номинации (2):
Лучший фэнтези-фильм
Лучший актер (Альберт Финни)
frame I:1711 Avg QP:17.46 size: 74876
frame P:34190 Avg QP:18.61 size: 31954
frame B:144139 Avg QP:20.70 size: 11361

Общее
Полное имя : D:VideoKrupnaja ryba.2003.BDRip.AVCKrupnaja ryba.2003.AVO.rus.Михаил Чадов.ac3
Формат : AC-3
Формат/Информация : Audio Coding 3
Размер файла : 401 Мбайт
Продолжительность : 2 ч. 5 м.
Режим общего битрейта : Постоянный
Общий поток : 448 Кбит/сек

Аудио
Формат : AC-3
Формат/Информация : Audio Coding 3
Расширение режима : CM (complete main)
Параметр Endianness формата : Big
Продолжительность : 2 ч. 5 м.
Вид битрейта : Постоянный
Битрейт : 448 Кбит/сек
Каналы : 6 каналов
Расположение каналов : Front: L C R, Side: L R, LFE
Частота : 48,0 КГц
Битовая глубина : 16 бит
Метод сжатия : С потерями
Размер потока : 401 Мбайт (100%)

Общее
Полное имя : D:VideoKrupnaja ryba.2003.BDRip.AVCKrupnaja ryba.2003.AVO.rus.Юрий Сербин.ac3
Формат : AC-3
Формат/Информация : Audio Coding 3
Размер файла : 401 Мбайт
Продолжительность : 2 ч. 5 м.
Режим общего битрейта : Постоянный
Общий поток : 448 Кбит/сек

Аудио
Формат : AC-3
Формат/Информация : Audio Coding 3
Расширение режима : CM (complete main)
Параметр Endianness формата : Big
Продолжительность : 2 ч. 5 м.
Вид битрейта : Постоянный
Битрейт : 448 Кбит/сек
Каналы : 6 каналов
Расположение каналов : Front: L C R, Side: L R, LFE
Частота : 48,0 КГц
Битовая глубина : 16 бит
Метод сжатия : С потерями
Размер потока : 401 Мбайт (100%)

Общее
Уникальный идентификатор : 196338317842233489083013052872750149147 (0x93B562724811BD87A53F6DDA219E2E1B)
Полное имя : D:VideoKrupnaja ryba.2003.BDRip.AVCKrupnaja ryba.2003.BDRip.AVC.mkv
Формат : Matroska
Версия формата : Version 4 / Version 2
Размер файла : 4,23 Гбайт
Продолжительность : 2 ч. 5 м.
Общий поток : 4839 Кбит/сек
Дата кодирования : UTC 2015-03-11 03:59:43
Программа кодирования : mkvmerge v7.7.0 ('Six Voices') 64bit built on Feb 28 2015 23:39:33
Библиотека кодирования : libebml v1.3.1 + libmatroska v1.4.2
DURATION : 02:05:09.152000000
NUMBER_OF_FRAMES : 234661
NUMBER_OF_BYTES : 420512512
_STATISTICS_WRITING_APP : mkvmerge v7.7.0 ('Six Voices') 64bit built on Feb 28 2015 23:39:33
_STATISTICS_WRITING_DATE_UTC : 2015-03-11 03:59:43
_STATISTICS_TAGS : BPS DURATION NUMBER_OF_FRAMES NUMBER_OF_BYTES

Видео
Идентификатор : 1
Формат : AVC
Формат/Информация : Advanced Video Codec
Профиль формата : High@L4.1
Параметр CABAC формата : Да
Параметр ReFrames формата : 9 кадров
Идентификатор кодека : V_MPEG4/ISO/AVC
Продолжительность : 2 ч. 5 м.
Битрейт : 2951 Кбит/сек
Ширина : 1024 пикселя
Высота : 556 пикселей
Соотношение сторон : 1,85:1
Режим частоты кадров : Постоянный
Частота кадров : 23,976 кадра/сек
Цветовое пространство : YUV
Субдискретизация насыщенности : 4:2:0
Битовая глубина : 8 бит
Тип развёртки : Прогрессивная
Бит/(Пиксели*Кадры) : 0.216
Размер потока : 2,58 Гбайт (61%)
Заголовок : BDRip -- STarankov
Библиотека кодирования : x264 core 142 r2431 ac76440
Настройки программы : cabac=1 / ref=9 / deblock=1:-2:-2 / analyse=0x3:0x113 / me=umh / subme=10 / psy=1 / psy_rd=1.00:0.15 / mixed_ref=1 / me_range=32 / chroma_me=1 / trellis=2 / 8x8dct=1 / cqm=0 / deadzone=21,11 / fast_pskip=1 / chroma_qp_offset=-3 / threads=6 / lookahead_threads=1 / sliced_threads=0 / nr=0 / decimate=1 / interlaced=0 / bluray_compat=0 / constrained_intra=0 / bframes=8 / b_pyramid=2 / b_adapt=2 / b_bias=0 / direct=3 / weightb=1 / open_gop=0 / weightp=2 / keyint=230 / keyint_min=23 / scenecut=40 / intra_refresh=0 / rc_lookahead=40 / rc=crf / mbtree=0 / crf=19.0 / qcomp=0.60 / qpmin=0 / qpmax=69 / qpstep=4 / vbv_maxrate=40000 / vbv_bufsize=50000 / crf_max=0.0 / nal_hrd=none / filler=0 / ip_ratio=1.40 / pb_ratio=1.30 / aq=1:1.00
Язык : English
Default : Да
Forced : Нет
DURATION : 02:05:09.169000000
NUMBER_OF_FRAMES : 180040
NUMBER_OF_BYTES : 2858130313
_STATISTICS_WRITING_APP : mkvmerge v7.7.0 ('Six Voices') 64bit built on Feb 28 2015 23:39:33
_STATISTICS_WRITING_DATE_UTC : 2015-03-11 03:59:43
_STATISTICS_TAGS : BPS DURATION NUMBER_OF_FRAMES NUMBER_OF_BYTES

Аудио #1
Идентификатор : 2
Формат : AC-3
Формат/Информация : Audio Coding 3
Расширение режима : CM (complete main)
Параметр Endianness формата : Big
Идентификатор кодека : A_AC3
Продолжительность : 2 ч. 5 м.
Вид битрейта : Постоянный
Битрейт : 448 Кбит/сек
Каналы : 6 каналов
Расположение каналов : Front: L C R, Side: L R, LFE
Частота : 48,0 КГц
Битовая глубина : 16 бит
Метод сжатия : С потерями
Размер потока : 401 Мбайт (9%)
Заголовок : DUB
Язык : Russian
Default : Нет
Forced : Нет

Аудио #2
Идентификатор : 3
Формат : AC-3
Формат/Информация : Audio Coding 3
Расширение режима : CM (complete main)
Параметр Endianness формата : Big
Идентификатор кодека : A_AC3
Продолжительность : 2 ч. 5 м.
Вид битрейта : Постоянный
Битрейт : 448 Кбит/сек
Каналы : 6 каналов
Расположение каналов : Front: L C R, Side: L R, LFE
Частота : 48,0 КГц
Битовая глубина : 16 бит
Метод сжатия : С потерями
Размер потока : 401 Мбайт (9%)
Заголовок : MVO
Язык : Russian
Default : Нет
Forced : Нет

Аудио #3
Идентификатор : 4
Формат : AC-3
Формат/Информация : Audio Coding 3
Расширение режима : CM (complete main)
Параметр Endianness формата : Big
Идентификатор кодека : A_AC3
Продолжительность : 2 ч. 5 м.
Вид битрейта : Постоянный
Битрейт : 448 Кбит/сек
Каналы : 6 каналов
Расположение каналов : Front: L C R, Side: L R, LFE
Частота : 48,0 КГц
Битовая глубина : 16 бит
Метод сжатия : С потерями
Размер потока : 401 Мбайт (9%)
Заголовок : DVO (Tycoon)
Язык : Russian
Default : Да
Forced : Нет

Аудио #4
Идентификатор : 5
Формат : AC-3
Формат/Информация : Audio Coding 3
Расширение режима : CM (complete main)
Параметр Endianness формата : Big
Идентификатор кодека : A_AC3
Продолжительность : 2 ч. 5 м.
Вид битрейта : Постоянный
Битрейт : 448 Кбит/сек
Каналы : 6 каналов
Расположение каналов : Front: L C R, Side: L R, LFE
Частота : 48,0 КГц
Битовая глубина : 16 бит
Метод сжатия : С потерями
Размер потока : 401 Мбайт (9%)
Заголовок : AVO (Андрей Гаврилов)
Язык : Russian
Default : Нет
Forced : Нет

Общее
Полное имя : D:VideoKrupnaja ryba.2003.BDRip.AVCKrupnaja ryba.2003.DVO.rus.Пётр Гланц и Инна Королёва.ac3
Формат : AC-3
Формат/Информация : Audio Coding 3
Размер файла : 401 Мбайт
Продолжительность : 2 ч. 5 м.
Режим общего битрейта : Постоянный
Общий поток : 448 Кбит/сек

Аудио
Формат : AC-3
Формат/Информация : Audio Coding 3
Расширение режима : CM (complete main)
Параметр Endianness формата : Big
Продолжительность : 2 ч. 5 м.
Вид битрейта : Постоянный
Битрейт : 448 Кбит/сек
Каналы : 6 каналов
Расположение каналов : Front: L C R, Side: L R, LFE
Частота : 48,0 КГц
Битовая глубина : 16 бит
Метод сжатия : С потерями
Размер потока : 401 Мбайт (100%)

Общее
Полное имя : D:VideoKrupnaja ryba.2003.BDRip.AVCKrupnaja ryba.2003.eng.srt
Формат : SubRip
Размер файла : 89,1 Кбайт

Текст
Формат : SubRip
Метод сжатия : Без потерь

Общее
Полное имя : D:VideoKrupnaja ryba.2003.BDRip.AVCKrupnaja ryba.2003.Original.eng.ac3
Формат : AC-3
Формат/Информация : Audio Coding 3
Размер файла : 401 Мбайт
Продолжительность : 2 ч. 5 м.
Режим общего битрейта : Постоянный
Общий поток : 448 Кбит/сек

Аудио
Формат : AC-3
Формат/Информация : Audio Coding 3
Расширение режима : CM (complete main)
Параметр Endianness формата : Big
Продолжительность : 2 ч. 5 м.
Вид битрейта : Постоянный
Битрейт : 448 Кбит/сек
Каналы : 6 каналов
Расположение каналов : Front: L C R, Side: L R, LFE
Частота : 48,0 КГц
Битовая глубина : 16 бит
Метод сжатия : С потерями
Размер потока : 401 Мбайт (100%)

Общее
Полное имя : D:VideoKrupnaja ryba.2003.BDRip.AVCKrupnaja ryba.2003.rus.srt
Формат : SubRip
Размер файла : 110 Кбайт

Текст
Формат : SubRip
Метод сжатия : Без потерь

Общее
Полное имя : D:VideoKrupnaja ryba.2003.BDRip.AVCKrupnaja ryba.2003.VO.rus.Ронин, любительский одноголосый.ac3
Формат : AC-3
Формат/Информация : Audio Coding 3
Размер файла : 401 Мбайт
Продолжительность : 2 ч. 5 м.
Режим общего битрейта : Постоянный
Общий поток : 448 Кбит/сек

Аудио
Формат : AC-3
Формат/Информация : Audio Coding 3
Расширение режима : CM (complete main)
Параметр Endianness формата : Big
Продолжительность : 2 ч. 5 м.
Вид битрейта : Постоянный
Битрейт : 448 Кбит/сек
Каналы : 6 каналов
Расположение каналов : Front: L C R, Side: L R, LFE
Частота : 48,0 КГц
Битовая глубина : 16 бит
Метод сжатия : С потерями
Размер потока : 401 Мбайт (100%)
pb.wtf



Скачать Крупная рыба через торрент http://i67.fastpic.ru/big/2014/1022/f8/f20df21520d273ae29b31663fe266bf8.jpg Скачать фильм Крупная рыба через торрент бесплантно в хорошем качестве Описание: В основу этой приключенческой ленты положен роман Дэниела Уоллеса «Большая рыба: роман мифических пропорций». Умирает отец, о ... 9 10 6
Info! Золотая раздача, скачанное не засчитывается.
Торрент: Зарегистрирован [2015-03-11 06:52] · скачан: 108 раз
Статус: √ проверено
Размер: 6.19 GB
Как cкачать? Как скачать Крупная рыба через торрент | qTorrent

% Раздел Тема Автор DL S | L
Фильмы [HD 720p, 1080p] (Хороший звук DUB, MVO) [ 25.38 GB ] Крупная рыба / Big Fish [2003 BDRip 1080p] DUB MVO DVO AVO VO msltel Скачать
1 | 0
Фильмы [HD 720p, 1080p] (Хороший звук DUB, MVO) [ 15.16 GB ] Крупная рыба / Big Fish [2003 BDRip 720p] DUB MVO DVO AVO VO msltel Скачать
1 | 0


>> Регистрируемся здесь <<






Отзывы и комментарии о схеме читаем и пишем здесь: ---> Отзывы и комментарии о схеме

Новые благодарочки в телеграм довольных пользователей:
скриншот   скриншот   скриншот   скриншот   скриншот
    Дорогой пользователь! Огромная просьба, поблагодарите релизера, оцените раздачу и оставьте свои комментарий, если Вы скачали Крупная рыба через торрент бесплатно! Внесите свою лепту в развитие PiratBit!
    Комментировать посты могут только пользователи прошедшие не сложную регистрацию
    Показать сообщения:    

    Крупная рыба через торрент
    Скачать бесплатно Крупная рыба
    Крупная рыба скачать торрент
    Крупная рыба смотреть онлайн
    Cкачать фильм Крупная рыба бесплатно
    Крупная рыба скачать торрент в хорошем качестве
    Крупная рыба смотреть онлайн бесплатно в хорошем качестве


    Вы не можете начинать темы
    Вы не можете отвечать на сообщения
    Вы не можете редактировать свои сообщения
    Вы не можете удалять свои сообщения
    Вы не можете голосовать в опросах
    Вы не можете прикреплять файлы к сообщениям
    Вы можете скачивать файлы