Ссылка на приватное зеркало нашего сайта всего за 1$. Внимание количество ограничено!!!

2 сезон

iTunes

1 сезон

1

2 сезон

2 сезон

iTunes

1 сезон

RePack

30

Новинка

ВАЖНО

ИГРА 18+

pack

RePack

MK11
pack

Забери бонус

RePack

jed

!!Акция!!

Alien_Rage

RePack

fifa19

RePack

Assassins Creed: Odyssey

RePack

NEED FOR SPEED™ PAYBACK

4 сезон

9 сезон

Бесстыжие 9 сезон

Все сериалы

все сериалы на PB.wtf

RePack

FAR CRY 5
  

Ночь в музее: Секрет гробницы / Night at the Museum: Secret of the Tomb (Шон Леви ) [2014, фэнтези, комедия, приключения, BD Remux] DUB Лицензия pb.wtf

Ночь в музее: Секрет гробницы через торрент pb.wtf

Размер: 24.73 GB | Добавлен: 5 лет 8 мес. назад | Торрент скачан:103 раза
Скачать  

11-03-2015 15:02 Ночь в музее: Секрет гробницы Скачать торрент  


Ночь в музее: Секрет гробницы / Night at the Museum: Secret of the Tomb
«Эта ночь изменит всё»

ИНФОРМАЦИЯ:
Год выпуска:2014
Страна: США, Великобритания
Жанр: фэнтези, комедия, приключения, семейный
Продолжительность: 01:37:48
Перевод: Дубляж - [Лицензия]
Субтитры: русские (Forced), русские, украинские, английские,
Режиссер: Шон Леви

В Ролях:


Бен Стиллер (Larry Daley / Laaa), Робин Уильямс (Teddy Roosevelt / Garuda), Оуэн Уилсон (Jedediah), Стив Куган (Octavius), Рики Джервэйс (Dr. McPhee), Дэн Стивенс (Sir Lancelot), Ребел Уилсон (Tilly), Скайлер Джизондо (Nick Daley), Рами Малек (Ahkmenrah), Патрик Галлахер (Attila the Hun), Мицуо Пек (Sacajawea), Бен Кингсли (Merenkahre)

ОПИСАНИЕ:
Ночной сторож Музея естественной истории в Нью-Йорке Ларри Дэйли в отчаянии: его друзья-экспонаты начинают странно себя вести, а всё потому, что оживляющая их древнеегипетская золотая пластина разрушается. Только отец фараона Ахкменра знает тайну магического артефакта, но вот беда - его мумия далеко, она выставлена в Британском музее естествознания! Команда любимых героев предпринимает беспрецедентное путешествие в Лондон. Они должны объединиться с британскими экспонатами и рискнуть всем, чтобы восстановить золотую пластину до того, как Ларри потеряет своих друзей навсегда.

  • Мировая премьера:17 декабря 2014

    ТЕХ.ДАННЫЕ:
    Качество: BD Remux
    Формат: MKV
    Видео кодек: AVC
    Аудио кодек: AC3, DTS, DTS-HD
    Видео: AVC, 1920x1080 (16:9), 31499 kbps, 23,976 fps, 0,634 bpp
    Аудио №1: русский / AC3 / 5.1 / 48 kHz / 448 kbps / 16 bit || Дубляж
    Аудио №2: русский / DTS / 5.1 / 48 kHz / 755 kbps / 24 bit || Дубляж
    Аудио №3: английский / DTS-HD / 48 kHz / 1596 kbps / 24 bit
    Аудио №4: украинский / AC3 / 5.1 / 48 kHz / 448 kbps / 16 bit-Дубляж
    Аудио №5: английский / AC3 / 5.1 / 48 kHz / 448 kbps / 16 bit
    Аудио №6: английский / AC3 / 2.0 / 48 kHz / 224 kbps / 16 bit
    Навигация по главам: есть



    Код:

    General
    Unique ID                                : 226125990414012795451480826084681323057 (0xAA1E4817DF372B10BB19AE4944381231)
    Complete name                            : D:\Торенты\Night.at.the.Museum.Secret.of.the.Tomb.2014.1080p.BDRemux.mkv
    Format                                   : Matroska
    Format version                           : Version 4 / Version 2
    File size                                : 24.7 GiB
    Duration                                 : 1h 37mn
    Overall bit rate mode                    : Variable
    Overall bit rate                         : 36.2 Mbps
    Movie name                               : Night at the Museum: Secret of the Tomb (2014)
    Encoded date                             : UTC 2015-03-10 17:54:23
    Writing application                      : mkvmerge v7.3.0 ('Nouages') 64bit built on Oct 22 2014 18:53:34
    Writing library                          : libebml v1.3.0 + libmatroska v1.4.1

    Video
    ID                                       : 1
    Format                                   : AVC
    Format/Info                              : Advanced Video Codec
    Format profile                           : High@L4.1
    Format settings, CABAC                   : Yes
    Format settings, ReFrames                : 4 frames
    Codec ID                                 : V_MPEG4/ISO/AVC
    Duration                                 : 1h 37mn
    Bit rate mode                            : Variable
    Bit rate                                 : 31.5 Mbps
    Width                                    : 1 920 pixels
    Height                                   : 1 080 pixels
    Display aspect ratio                     : 16:9
    Frame rate                               : 23.976 fps
    Color space                              : YUV
    Chroma subsampling                       : 4:2:0
    Bit depth                                : 8 bits
    Scan type                                : Progressive
    Bits/(Pixel*Frame)                       : 0.634
    Stream size                              : 21.6 GiB (87%)
    Language                                 : English
    Default                                  : Yes
    Forced                                   : No

    Audio #1
    ID                                       : 2
    Format                                   : AC-3
    Format/Info                              : Audio Coding 3
    Mode extension                           : CM (complete main)
    Codec ID                                 : A_AC3
    Duration                                 : 1h 37mn
    Bit rate mode                            : Constant
    Bit rate                                 : 448 Kbps
    Channel(s)                               : 6 channels
    Channel positions                        : Front: L C R, Side: L R, LFE
    Sampling rate                            : 48.0 KHz
    Bit depth                                : 16 bits
    Compression mode                         : Lossy
    Stream size                              : 313 MiB (1%)
    Language                                 : Russian
    Default                                  : Yes
    Forced                                   : No

    Audio #2
    ID                                       : 3
    Format                                   : DTS
    Format/Info                              : Digital Theater Systems
    Codec ID                                 : A_DTS
    Duration                                 : 1h 37mn
    Bit rate mode                            : Constant
    Bit rate                                 : 755 Kbps
    Channel(s)                               : 6 channels
    Channel positions                        : Front: L C R, Side: L R, LFE
    Sampling rate                            : 48.0 KHz
    Bit depth                                : 24 bits
    Compression mode                         : Lossy
    Stream size                              : 528 MiB (2%)
    Title                                    : DTS 5.1 @ 768 kbps - DUB, Blu-ray EUR
    Language                                 : Russian
    Default                                  : No
    Forced                                   : No

    Audio #3
    ID                                       : 4
    Format                                   : DTS
    Format/Info                              : Digital Theater Systems
    Format profile                           : MA / Core
    Codec ID                                 : A_DTS
    Duration                                 : 1h 37mn
    Bit rate mode                            : Variable
    Bit rate                                 : 1 597 Kbps / 1 510 Kbps
    Channel(s)                               : 8 channels / 6 channels
    Channel positions                        : Front: L C R, Side: L R, Back: L R, LFE / Front: L C R, Side: L R, LFE
    Sampling rate                            : 48.0 KHz
    Bit depth                                : 24 bits
    Compression mode                         : Lossless / Lossy
    Title                                    : Original
    Language                                 : English
    Default                                  : No
    Forced                                   : No

    Audio #4
    ID                                       : 5
    Format                                   : AC-3
    Format/Info                              : Audio Coding 3
    Mode extension                           : CM (complete main)
    Codec ID                                 : A_AC3
    Duration                                 : 1h 37mn
    Bit rate mode                            : Constant
    Bit rate                                 : 448 Kbps
    Channel(s)                               : 6 channels
    Channel positions                        : Front: L C R, Side: L R, LFE
    Sampling rate                            : 48.0 KHz
    Bit depth                                : 16 bits
    Compression mode                         : Lossy
    Stream size                              : 313 MiB (1%)
    Title                                    : AC3 5.1 @ 448 kbps - DUB, Blu-ray EUR
    Language                                 : Ukrainian
    Default                                  : No
    Forced                                   : No

    Audio #5
    ID                                       : 6
    Format                                   : AC-3
    Format/Info                              : Audio Coding 3
    Mode extension                           : CM (complete main)
    Codec ID                                 : A_AC3
    Duration                                 : 1h 37mn
    Bit rate mode                            : Constant
    Bit rate                                 : 448 Kbps
    Channel(s)                               : 6 channels
    Channel positions                        : Front: L C R, Side: L R, LFE
    Sampling rate                            : 48.0 KHz
    Bit depth                                : 16 bits
    Compression mode                         : Lossy
    Stream size                              : 313 MiB (1%)
    Title                                    : AC3 5.1 @ 448 kbps - Descriptive
    Language                                 : English
    Default                                  : No
    Forced                                   : No

    Audio #6
    ID                                       : 7
    Format                                   : AC-3
    Format/Info                              : Audio Coding 3
    Mode extension                           : CM (complete main)
    Codec ID                                 : A_AC3
    Duration                                 : 1h 37mn
    Bit rate mode                            : Constant
    Bit rate                                 : 224 Kbps
    Channel(s)                               : 2 channels
    Channel positions                        : Front: L R
    Sampling rate                            : 48.0 KHz
    Bit depth                                : 16 bits
    Compression mode                         : Lossy
    Stream size                              : 157 MiB (1%)
    Title                                    : AC3 2.0 @ 224 kbps - Audio Commentary by Shawn Levy
    Language                                 : English
    Default                                  : No
    Forced                                   : No

    Text #1
    ID                                       : 8
    Format                                   : UTF-8
    Codec ID                                 : S_TEXT/UTF8
    Codec ID/Info                            : UTF-8 Plain Text
    Title                                    : Forced
    Language                                 : Russian
    Default                                  : Yes
    Forced                                   : No

    Text #2
    ID                                       : 9
    Format                                   : UTF-8
    Codec ID                                 : S_TEXT/UTF8
    Codec ID/Info                            : UTF-8 Plain Text
    Language                                 : Russian
    Default                                  : No
    Forced                                   : No

    Text #3
    ID                                       : 10
    Format                                   : UTF-8
    Codec ID                                 : S_TEXT/UTF8
    Codec ID/Info                            : UTF-8 Plain Text
    Language                                 : Ukrainian
    Default                                  : No
    Forced                                   : No

    Text #4
    ID                                       : 11
    Format                                   : UTF-8
    Codec ID                                 : S_TEXT/UTF8
    Codec ID/Info                            : UTF-8 Plain Text
    Language                                 : English
    Default                                  : No
    Forced                                   : No

    Menu
    00:00:00.000                             : en:00:00:00.000
    00:04:34.441                             : en:00:04:34.441
    00:06:29.347                             : en:00:06:29.347
    00:09:10.884                             : en:00:09:10.884
    00:13:18.131                             : en:00:13:18.131
    00:14:43.132                             : en:00:14:43.132
    00:18:01.038                             : en:00:18:01.038
    00:19:58.906                             : en:00:19:58.906
    00:22:27.388                             : en:00:22:27.388
    00:24:47.611                             : en:00:24:47.611
    00:26:26.084                             : en:00:26:26.084
    00:29:11.583                             : en:00:29:11.583
    00:32:03.505                             : en:00:32:03.505
    00:35:50.815                             : en:00:35:50.815
    00:39:48.761                             : en:00:39:48.761
    00:44:14.735                             : en:00:44:14.735
    00:51:19.285                             : en:00:51:19.285
    00:52:38.530                             : en:00:52:38.530
    00:58:00.352                             : en:00:58:00.352
    01:01:09.624                             : en:01:01:09.624
    01:03:40.275                             : en:01:03:40.275
    01:06:44.334                             : en:01:06:44.334
    01:08:01.911                             : en:01:08:01.911
    01:11:09.640                             : en:01:11:09.640
    01:17:08.624                             : en:01:17:08.624
    01:21:45.317                             : en:01:21:45.317
    01:27:47.512                             : en:01:27:47.512
    01:31:28.274                             : en:01:31:28.274

    Скриншоты:


    © Оформление by Ворон
    pb.wtf



  • Скачать Ночь в музее: Секрет гробницы через торрент http://pic.kartinco.top/images/6/ordi9.jpg Скачать фильм Ночь в музее: Секрет гробницы через торрент бесплантно в хорошем качестве Е:Ночной сторож Музея естественной истории в Нью-Йорке Ларри Дэйли в отчаянии: его друзья-экспонаты начинают странно себя вести, а всё ... 10 10 4
    Торрент: Зарегистрирован [2015-03-11 15:02] · скачан: 103 раз
    Статус: √ проверено
    Размер: 24.73 GB
    Как cкачать? Как скачать Ночь в музее: Секрет гробницы через торрент | qTorrent

    28-11-2019 20:33  

    Отключить всю рекламу на сайте

      Дорогой пользователь! Огромная просьба, поблагодарите релизера, оцените раздачу и оставьте свои комментарий, если Вы скачали Ночь в музее: Секрет гробницы через торрент бесплатно! Внесите свою лепту в развитие PiratBit!
      Комментировать посты могут только пользователи прошедшие не сложную регистрацию
      Показать сообщения:    

      Ночь в музее: Секрет гробницы через торрент
      Скачать бесплатно Ночь в музее: Секрет гробницы
      Ночь в музее: Секрет гробницы скачать торрент
      Ночь в музее: Секрет гробницы смотреть онлайн
      Cкачать фильм Ночь в музее: Секрет гробницы бесплатно
      Ночь в музее: Секрет гробницы скачать торрент в хорошем качестве
      Ночь в музее: Секрет гробницы смотреть онлайн бесплатно в хорошем качестве


      Вы не можете начинать темы
      Вы не можете отвечать на сообщения
      Вы не можете редактировать свои сообщения
      Вы не можете удалять свои сообщения
      Вы не можете голосовать в опросах
      Вы не можете прикреплять файлы к сообщениям
      Вы можете скачивать файлы