Всегда рабочее зеркало без VPN и Proxy просто перед .vidak.icu напиши любое слово или цифру, Пример http://rfet.vidak.icu

MVO

2 сезон

2 сезон

1

1 сезон

iTunes

2 сезон

13

1 сезон

Распродажа

pack

Рекомендуем

Пиратка

30

ВАЖНО

RePack

MK11

RePack

jed

RePack

fifa19

RePack

RDR2

RePack

NEED FOR SPEED™ PAYBACK

Кинопоиск HD

6 сезон

 Острые козырьки 6 сезон

Все сериалы

все сериалы на PB.wtf

RePack

FAR CRY 5

Anonymous, нам критически не хватает 5601 руб. на оплату серверов и переферии за Апрель, помоги нам пожалуйста, вся надежда только на тебя. В благодарность мы отключим тебе всю рекламу на сайте!

×
  
Magnet ссылка

Бабадук / The Babadook (Дженнифер Кент ) [2014, ужасы, триллер, драма, BDRip-AVC от HELLYWOOD / Дубляж [НТВ+] pb.wtf

Бабадук через торрент pb.wtf

Размер: 2.14 GB | Добавлен: 7 лет 2 мес. назад | Торрент скачан:515 раз
Смотреть онлайн Бабадук | Скачать    Ребята, помогите собрать деньги на оплату серверов!!!

11-03-2015 16:51 Бабадук Скачать торрент  

Год выпуска: 2014

Производство: Австралия, Канада / Causeway Films, Smoking Gun Productions

Жанр: Ужасы, триллер, драма

Продолжительность: 01:33:46

Перевод: Профессиональный (полное дублирование) [НТВ+]

Субтитры: Русские (полные + форс.), англиские (Full + SDH)

Навигация по главам: Есть




Режиссер: Дженнифер Кент / Jennifer Kent

В ролях: Эсси Дэвис, Ной Вайсман, Хейли МакЭлхинни, Дэниэл Хеншэлл, Барбара Уэст, Бенжамин Винспер, Тиффани Линдолл-Найт, , Крэйг Бехенна, Кармел Джонсон

Описание: Овдовевшую женщину с шестилетним сыном начинает преследовать монстр Бабадук — герой из рассказов-ужасов. Поначалу нервное и странное поведение матери и сына кажется объяснимым для окружающих — без мужской поддержки прожить им сложно. Но вскоре открываются истинные причины, ведь по ночам к ним является Бабадук, чтобы напугать до смерти...









Качество: BDRip-AVC
Формат: MKV
Видео кодек: AVC
Аудио кодек:AC3
Видео: x.264, 1092x464 (2,35:1), 23,976 fps, 2434 kbps, 0.200 bit/pixel
Аудио#1: 48 kHz, AC3 Dolby Digital, 3/2 (L,C,R,l,r) + LFE ch, 384.00 kbps | RUS
Аудио#2: 48 kHz, AC3 Dolby Digital, 3/2 (L,C,R,l,r) + LFE ch, 448.00 kbps | ENG
Аудио#3: 48 kHz, AC3 Dolby Digital, 3/2 (L,C,R,l,r) + LFE ch, 448.00 kbps | А.Матвеев (отдельно)
Релиз от:

Автор рипа: potroks




Общее
Уникальный идентификатор : 247241079600675627201220781704754456078 (0xBA00E65DC926BD84B279EBEC1F2F660E)
Полное имя : D:\Торенты\Babaduk.2014.DUAL.BDRip.x264.-HELLYWOOD.mkv
Формат : Matroska
Версия формата : Version 4 / Version 2
Размер файла : 2,14 Гбайт
Продолжительность : 1 ч. 33 м.
Общий поток : 3266 Кбит/сек
Название фильма : The Babadook (2014) - HELLYWOOD
Дата кодирования : UTC 2015-03-11 15:16:31
Программа кодирования : mkvmerge v5.9.0 ('On The Loose') built on Dec 15 2012 16:39:58
Библиотека кодирования : libebml v1.3.0 + libmatroska v1.4.0

Видео
Идентификатор : 1
Формат : AVC
Формат/Информация : Advanced Video Codec
Профиль формата : High@L4.1
Параметр CABAC формата : Да
Параметр ReFrames формата : 9 кадров
Идентификатор кодека : V_MPEG4/ISO/AVC
Продолжительность : 1 ч. 33 м.
Битрейт : 2434 Кбит/сек
Ширина : 1092 пикселя
Высота : 464 пикселя
Соотношение сторон : 2,35:1
Соотношение сторон в оригинале : 2,35:1
Режим частоты кадров : Постоянный
Частота кадров : 23,976 кадра/сек
Цветовое пространство : YUV
Субдискретизация насыщенности : 4:2:0
Битовая глубина : 8 бит
Тип развёртки : Прогрессивная
Бит/(Пиксели*Кадры) : 0.200
Размер потока : 1,55 Гбайт (73%)
Заголовок : potroks
Библиотека кодирования : x264 core 128 r2216M 198a7ea
Настройки программы : cabac=1 / ref=10 / deblock=1:-2:-2 / analyse=0x3:0x133 / me=umh / subme=11 / psy=1 / psy_rd=1.05:0.10 / mixed_ref=1 / me_range=48 / chroma_me=1 / trellis=2 / 8x8dct=1 / cqm=0 / deadzone=21,11 / fast_pskip=0 / chroma_qp_offset=-3 / threads=6 / lookahead_threads=1 / sliced_threads=0 / nr=0 / decimate=1 / interlaced=0 / bluray_compat=0 / constrained_intra=0 / bframes=11 / b_pyramid=1 / b_adapt=2 / b_bias=0 / direct=3 / weightb=1 / open_gop=0 / weightp=2 / keyint=250 / keyint_min=23 / scenecut=40 / intra_refresh=0 / rc_lookahead=130 / rc=2pass / mbtree=0 / bitrate=2434 / ratetol=1.0 / qcomp=0.72 / qpmin=0 / qpmax=69 / qpstep=4 / cplxblur=20.0 / qblur=0.5 / vbv_maxrate=50000 / vbv_bufsize=62500 / nal_hrd=none / ip_ratio=1.35 / pb_ratio=1.25 / aq=1:0.80
Язык : English
Default : Да
Forced : Нет

Аудио #1
Идентификатор : 2
Формат : AC-3
Формат/Информация : Audio Coding 3
Расширение режима : CM (complete main)
Параметр Endianness формата : Big
Идентификатор кодека : A_AC3
Продолжительность : 1 ч. 33 м.
Вид битрейта : Постоянный
Битрейт : 384 Кбит/сек
Каналы : 6 каналов
Расположение каналов : Front: L C R, Side: L R, LFE
Частота : 48,0 КГц
Битовая глубина : 16 бит
Метод сжатия : С потерями
Размер потока : 258 Мбайт (12%)
Заголовок : Dub | DD 5.1 @ 384 kbps - НТВ+
Язык : Russian
Default : Да
Forced : Нет

Аудио #2
Идентификатор : 3
Формат : AC-3
Формат/Информация : Audio Coding 3
Расширение режима : CM (complete main)
Параметр Endianness формата : Big
Идентификатор кодека : A_AC3
Продолжительность : 1 ч. 33 м.
Вид битрейта : Постоянный
Битрейт : 448 Кбит/сек
Каналы : 6 каналов
Расположение каналов : Front: L C R, Side: L R, LFE
Частота : 48,0 КГц
Битовая глубина : 16 бит
Метод сжатия : С потерями
Размер потока : 300 Мбайт (14%)
Заголовок : Original | DD 5.1 @ 448 kbps
Язык : English
Default : Нет
Forced : Нет

Текст #1
Идентификатор : 4
Формат : UTF-8
Идентификатор кодека : S_TEXT/UTF8
Идентификатор кодека/Информация : UTF-8 Plain Text
Заголовок : форс.
Язык : Russian
Default : Да
Forced : Нет

Текст #2
Идентификатор : 5
Формат : UTF-8
Идентификатор кодека : S_TEXT/UTF8
Идентификатор кодека/Информация : UTF-8 Plain Text
Заголовок : MartinaG
Язык : Russian
Default : Нет
Forced : Нет

Текст #3
Идентификатор : 6
Формат : UTF-8
Идентификатор кодека : S_TEXT/UTF8
Идентификатор кодека/Информация : UTF-8 Plain Text
Заголовок : full
Язык : English
Default : Нет
Forced : Нет

Текст #4
Идентификатор : 7
Формат : UTF-8
Идентификатор кодека : S_TEXT/UTF8
Идентификатор кодека/Информация : UTF-8 Plain Text
Заголовок : SDH
Язык : English
Default : Нет
Forced : Нет

Меню
00:00:00.000 : :Chapter 01
00:03:13.526 : :Chapter 02
00:10:42.308 : :Chapter 03
00:17:40.309 : :Chapter 04
00:24:08.655 : :Chapter 05
00:32:51.803 : :Chapter 06
00:39:23.778 : :Chapter 07
00:43:43.245 : :Chapter 08
00:46:02.134 : :Chapter 09
00:53:54.397 : :Chapter 10
01:01:22.720 : :Chapter 11
01:08:38.322 : :Chapter 12
01:14:05.983 : :Chapter 13
01:18:38.922 : :Chapter 14
01:24:58.259 : :Chapter 15
01:30:11.739 : :Chapter 16

Код:

[b]перевод MartinaG и озвучка Алексея Матвеева, доступны благодаря будулайроманову.[/b]

pb.wtf



Скачать Бабадук через торрент http://i64.fastpic.ru/big/2015/0212/b2/61cee4bfc62a6130956efb683fc12cb2.png Скачать, смотреть онлайн Бабадук бесплантно в хорошем качестве Описание: Овдовевшую женщину с шестилетним сыном начинает преследовать монстр Бабадук — герой из рассказов-ужасов. Поначалу нервное и ... 8.3 10 12
Торрент: Зарегистрирован [2015-03-11 16:51] · скачан: 515 раз
Статус: √ проверено
Размер: 2.14 GB
Как cкачать? Как скачать Бабадук через торрент | UTorrent

% Раздел Тема Автор DL S | L
Ultra HD (UHD: 2K, 4K, 8K) — видео сверхвысокой чёткости [ 44.93 GB ] Бабадук / The Babadook [2014 UHD BDRemux 2160p] DUB [ R5] bober100 Скачать
1 | 0
Фильмы 2014 [DVDrip, WEB-DLRip, HDrip] [ 1.46 GB ] Бабадук / The Babadook [2014 BDRip] - [] Twi7ter Скачать
2 | 0
Фильмы с авторской озвучкой [ 3.11 GB ] Бабадук / The Babadook [2014 WEB-DL 720p Авторский ] кэп Скачать
1 | 0
Фильмы [HD 720p, 1080p] (Хороший звук DUB, MVO) [ 4.48 GB ] Бабадук / The Babadook [2014 BDRip 720p [НТВ Ворон Скачать
1 | 0
Фильмы с авторской озвучкой [ 1.43 GB ] Бабадук / The Babadook [2014 WEB-DLRip Авторский ] makarevich Скачать
1 | 0
Фильмы с авторской озвучкой [ 744 MB ] Бабадук / The Babadook [2014 WEB-DLRip] АVO khagkfgkahgaer Скачать
1 | 0
Фильмы без перевода [ 1.43 GB ] Бабадук / The Babadook [2014 WEB-DLRip Оригинал] makarevich Скачать
1 | 0

28-11-2019 20:33  

Отключить всю рекламу на сайте

12-03-2015 05:29 Бабадук Скачать торрент  

no Не то пальто.pb.wtf



12-03-2015 15:42 Бабадук Скачать торрент  

Бабадук - это бадун... Не бухайте и Бабадук за тобой не придёт! С тяжелого бабадука такой брет в голову может придти только... Закусывать надо, товарищи - режиссёры, бабадук вас задери!!! pb.wtf



24-03-2015 13:24 Бабадук Скачать торрент  

мне вкатил))))даже получше расскрученных ужастиков которые кажутпоследнее время!pb.wtf



    Дорогой пользователь! Огромная просьба, поблагодарите релизера, оцените раздачу и оставьте свои комментарий, если Вы скачали Бабадук через торрент бесплатно!
    Комментировать посты могут только пользователи прошедшие не сложную регистрацию
    Показать сообщения:    

    Бабадук через торрент
    Скачать бесплатно Бабадук
    Бабадук скачать торрент
    Бабадук смотреть онлайн
    Cкачать фильм Бабадук бесплатно
    Бабадук скачать торрент в хорошем качестве
    Бабадук смотреть онлайн бесплатно в хорошем качестве


    Вы не можете начинать темы
    Вы не можете отвечать на сообщения
    Вы не можете редактировать свои сообщения
    Вы не можете удалять свои сообщения
    Вы не можете голосовать в опросах
    Вы не можете прикреплять файлы к сообщениям
    Вы можете скачивать файлы