2 сезон

iTunes

1 сезон

1

iTunes

iTunes

iTunes

1 сезон

RePack

30

ИГРА 18+

pack

ВАЖНО

!!Акция!!

Alien_RageХит недели

RePack

MK11
pack

Забери бонус

RePack

jed

!!Акция!!

Alien_Rage

RePack

fifa19

RePack

Assassins Creed: Odyssey

RePack

NEED FOR SPEED™ PAYBACK

4 сезон

9 сезон

Бесстыжие 9 сезон

Все сериалы

все сериалы на PB.wtf

RePack

FAR CRY 5
  

Бабадук / The Babadook (Дженнифер Кент ) [2014, ужасы, триллер, драма, BDRip 720p, Дубляж [НТВ+] pb.wtf

Бабадук через торрент pb.wtf

Размер: 4.48 GB | Добавлен: 5 лет 7 мес. назад | Торрент скачан:518 раз
Скачать  

11-03-2015 16:56 Бабадук Скачать торрент  

Информация о фильме

Название: Бабадук

Оригинальное название: The Babadook

Год выхода: 2014

Страна: Австралия, Канада

Студия: Causeway Films, Smoking Gun Productions

Продолжительность: 01:29:52

Перевод: Профессиональный (полное дублирование) | НТВ+

Жанр: ужасы, триллер, драма

Режиссер: Дженнифер Кент

В ролях: Эсси Дэвис, Ной Вайсман, Хейли МакЭлхинни, Дэниэл Хеншэлл, Барбара Уэст, Бенжамин Винспер, Тиффани Линдолл-Найт, Крэйг Бехенна, Кармел Джонсон

Описание:

Шесть лет назад Амелия в один день потеряла мужа и родила сына. Сэмуэлю уже идет седьмой год, но везде ему мерещатся чудовища. Однажды перед сном мальчик просит маму почитать ему найденную книгу об ужасном монстре. С этого момента его страхи получают физическое воплощение в жутком Бабадуке…и он, и Амелия перестают отличать свои фантазии от реальности…



Информация о файле:
Качество: BDRip 720p
Формат: MKV
Видео кодек: AVC
Аудио кодек:AC3
Видео: 1280x536, 25fps, 6357 Кбит/сек, high L4.1
Звук1: Русский, AC3, 48000Hz, 6ch, 320Kbps
Звук2: Английский, AC3, 48000Hz, 6ch, 320Kbps
Общее
Уникальный идентификатор : 168348648403719580577546155723716462494 (0x7EA6C532C2870C1E037BA147C20E879E)
Полное имя : D:\Торенты\Babaduk.2014.D.BDRip.720p.mkv
Формат : Matroska
Версия формата : Version 2
Размер файла : 4,48 Гбайт
Продолжительность : 1 ч. 29 м.
Общий поток : 7139 Кбит/сек
Программа кодирования : Lavf51.12.1
Библиотека кодирования : Lavf51.12.1

Видео
Идентификатор : 1
Формат : AVC
Формат/Информация : Advanced Video Codec
Профиль формата : High@L4.1
Параметр CABAC формата : Нет
Параметр ReFrames формата : 1 кадр
Параметр GOP формата : M=1, N=12
Идентификатор кодека : V_MPEG4/ISO/AVC
Продолжительность : 1 ч. 29 м.
Битрейт : 6357 Кбит/сек
Ширина : 1280 пикселей
Высота : 536 пикселей
Соотношение сторон : 2,40:1
Режим частоты кадров : Постоянный
Частота кадров : 25,000 кадров/сек
Цветовое пространство : YUV
Субдискретизация насыщенности : 4:2:0
Битовая глубина : 8 бит
Тип развёртки : Прогрессивная
Бит/(Пиксели*Кадры) : 0.371
Размер потока : 3,99 Гбайт (89%)
Язык : English
Default : Да
Forced : Нет

Аудио #1
Идентификатор : 2
Формат : AC-3
Формат/Информация : Audio Coding 3
Расширение режима : CM (complete main)
Параметр Endianness формата : Big
Идентификатор кодека : A_AC3
Продолжительность : 1 ч. 29 м.
Вид битрейта : Постоянный
Битрейт : 320 Кбит/сек
Каналы : 6 каналов
Расположение каналов : Front: L C R, Side: L R, LFE
Частота : 48,0 КГц
Битовая глубина : 16 бит
Метод сжатия : С потерями
Размер потока : 206 Мбайт (4%)
Язык : Russian
Default : Да
Forced : Нет

Аудио #2
Идентификатор : 3
Формат : AC-3
Формат/Информация : Audio Coding 3
Расширение режима : CM (complete main)
Параметр Endianness формата : Big
Идентификатор кодека : A_AC3
Продолжительность : 1 ч. 29 м.
Вид битрейта : Постоянный
Битрейт : 320 Кбит/сек
Каналы : 6 каналов
Расположение каналов : Front: L C R, Side: L R, LFE
Частота : 48,0 КГц
Битовая глубина : 16 бит
Метод сжатия : С потерями
Размер потока : 206 Мбайт (4%)
Язык : English
Default : Да
Forced : Нет
pb.wtf



Скачать Бабадук через торрент http://i64.fastpic.ru/big/2015/0212/b2/61cee4bfc62a6130956efb683fc12cb2.png Скачать фильм Бабадук через торрент бесплантно в хорошем качестве Описание: Шесть лет назад Амелия в один день потеряла мужа и родила сына. Сэмуэлю уже идет седьмой год, но везде ему мерещатся чудовища. ... 9.9 10 13
Info! Золотая раздача, скачанное не засчитывается.
Торрент: Зарегистрирован [2015-03-11 16:56] · скачан: 518 раз
Статус: √ проверено
Размер: 4.48 GB
Как cкачать? Как скачать Бабадук через торрент | qTorrent

% Раздел Тема Автор DL S | L
Фильмы 2014 [DVDrip, WEB-DLRip, HDrip] [ 1.46 GB ] Бабадук / The Babadook [2014 BDRip] - [] Twi7ter Скачать
3 | 0
Фильмы с авторской озвучкой [ 3.11 GB ] Бабадук / The Babadook [2014 WEB-DL 720p Авторский ] кэп Скачать
1 | 0
Фильмы 2014 [DVDrip, WEB-DLRip, HDrip] [ 2.14 GB ] Бабадук / The Babadook [2014 BDRip-AVC от HELLYWOOD / [НТВ Ворон Скачать
1 | 0
Фильмы с авторской озвучкой [ 1.43 GB ] Бабадук / The Babadook [2014 WEB-DLRip Авторский ] makarevich Скачать
1 | 0
Фильмы с авторской озвучкой [ 744 MB ] Бабадук / The Babadook [2014 WEB-DLRip] АVO khagkfgkahgaer Скачать
1 | 0
Фильмы без перевода [ 1.43 GB ] Бабадук / The Babadook [2014 WEB-DLRip Оригинал] makarevich Скачать
1 | 0

28-11-2019 20:33  

Отключить всю рекламу на сайте

11-03-2015 19:49 Бабадук Скачать торрент  

Такое гав...pb.wtf



11-03-2015 20:43 Бабадук Скачать торрент  

Ой - тока не надо тут гавкать!pb.wtf



11-03-2015 22:26 Бабадук Скачать торрент  

Аффтор, как можно пользоваться fastpic'ом? это здец как неудобно! ты сам свою раздачу просматривал?
за старания +, за оформление -pb.wtf



12-03-2015 10:25 Бабадук Скачать торрент  

StatuS_M, Я захожу через мозилу и хром проблем не наблюдаю, да и fastpic доволи "древний" и стабильный хостинг. Короче проблема у Вас!!!pb.wtf



30-03-2015 13:16 Бабадук Скачать торрент  

10 из 10 йето фидервр !.........................................................!
А если честно,полная фигня,смотрел 2 раза,первый раз уснул,второй раз смотрел с бутылокой виски,и все равно не понял не хрен@........pb.wtf



19-04-2015 19:28 Бабадук Скачать торрент  

попробую глянуть...pb.wtf



    Дорогой пользователь! Огромная просьба, поблагодарите релизера, оцените раздачу и оставьте свои комментарий, если Вы скачали Бабадук через торрент бесплатно! Внесите свою лепту в развитие PiratBit!
    Комментировать посты могут только пользователи прошедшие не сложную регистрацию
    Показать сообщения:    

    Бабадук через торрент
    Скачать бесплатно Бабадук
    Бабадук скачать торрент
    Бабадук смотреть онлайн
    Cкачать фильм Бабадук бесплатно
    Бабадук скачать торрент в хорошем качестве
    Бабадук смотреть онлайн бесплатно в хорошем качестве


    Вы не можете начинать темы
    Вы не можете отвечать на сообщения
    Вы не можете редактировать свои сообщения
    Вы не можете удалять свои сообщения
    Вы не можете голосовать в опросах
    Вы не можете прикреплять файлы к сообщениям
    Вы можете скачивать файлы