MEGA SALE -50% FORZA HORIZON 4 ULTIMATE+ВСЕ DLC+ОНЛАЙН всего за 599р. 299 руб. (супер цена). Внимание количество ограничено!!!

iTunes

1+1

iTunes

мы

iTunes

1

iTunes

Чернобыль

iTunes

Ральф против интернета

Лицензия

ПШазам

Лицензия

Игра престолов

Лицензия

30
pack

ВАЖНО

!!Акция!!

Alien_RageХит недели

RePack

Resident Evil 21

ИГРА 18+

pack

RePack

Metro:Exodus

!!Акция!!

Alien_Rage

RePack

fifa19

RePack

Assassins Creed: Odyssey

RePack

NEED FOR SPEED™ PAYBACK

3 сезон

9 сезон

Бесстыжие 9 сезон

Все сериалы

все сериалы на PB.wtf

RePack

FAR CRY 5
Ребята, катастрофически не хватает 7730р. для оплаты серверов за АВГУСТ (всвязи с блокировками трафик упал в 3 раза), 1-2р., выручайте.
  

О Шмидте / About Schmidt (Александр Пэйн) [2002, драма, комедия, BDRip-AVC] MVO, DVO pb.wtf

О Шмидте через торрент pb.wtf

Размер: 2.92 GB | Добавлен: 4 года 6 мес. назад | Торрент скачан:85 раз
Скачать  

12-03-2015 08:09 О Шмидте Скачать торрент  

О Шмидте / About Schmidt

Год выпуска: 2002
Страна: США
Жанр: драма, комедия
Продолжительность: 02:05:26
Перевод: профессиональный многоголосый, профессиональный двухголосый
Субтитры: русские, английские

Режиссёр: Александр Пэйн

В ролях: Джек Николсон, Кэти Бэйтс, Хоуп Дэвис, Дермот Малруни, Ховард Хессеман, Конни Рэй, Лен Кариу, Шерил Хамада, Фил Ривз, Мэтт Уинстон, Джеймс М. Коннор, Джилл Андерсон, Вон Вензел, Джудит Кэтрин Харт, Мелисса Ханна, Танг Ха, Джеймс Дж. Кроули, Мэри Бет Нельсон, Стив Хеллер, Томас Майкл Белфорд, МакКенна Гибсон, Эмили МакНотон

Описание: История Уоррена Шмидта, работавшего в страховой компании. После ухода на покой, он начинает переосмысливать прожитую жизнь, пытаясь понять, смог ли он достичь всех своих мечтаний в карьере, браке и семейной жизни. Дочь Уоррена почти не общается с ним, живёт в Денвере и собирается выйти замуж за человека, которого он не одобряет. Что же делать? Шмидт отправляется в поездку через всю страну, чтобы остановить эту свадьбу, а заодно и найти смысл своей собственной жизни... Фильм основан на одноимённом романе Луиса Бегли 1996 года.



Качество: BDRip-AVC Сравнение с исходником
Формат: MKV
Видео кодек: H.264
Аудио кодек: AC3
Видео: 2182 Кбит/с, 1024x576, 23.976 кадра/с, 0.154 bpp
Аудио 1: русский, AC3, 448 kbps, 6 ch, 48 kHz [профессиональный многоголосый]
Аудио 2: русский, AC3, 192 kbps, 2 ch, 48 kHz [профессиональный двухголосый]
Аудио 3: английский, AC3, 448 kbps, 6 ch, 48 kHz [оригинал]

Имеются неименованные главы/чаптеры.
Оскар, 2003 год
Номинации (2):
Лучшая мужская роль (Джек Николсон)
Лучшая женская роль второго плана (Кэти Бейтс)

Золотой глобус, 2003 год
Победитель (2):
Лучшая мужская роль (драма) (Джек Николсон)
Лучший сценарий

Номинации (3):
Лучший фильм (драма)
Лучшая женская роль второго плана (Кэти Бейтс)
Лучший режиссер (Александр Пэйн)

Британская академия, 2003 год
Номинации (1):
Лучшая мужская роль (Джек Николсон)

Премия Гильдии актеров, 2003 год
Номинации (2):
Лучшая мужская роль (Джек Николсон)
Лучшая женская роль второго плана (Кэти Бейтс)

Каннский кинофестиваль, 2002 год
Номинации (1):
Золотая пальмовая ветвь
frame I:1161 Avg QP:15.50 size: 85778
frame P:36783 Avg QP:16.76 size: 26760
frame B:142494 Avg QP:19.03 size: 7221

Общее
Уникальный идентификатор : 176006246087265386867013915694333923478 (0x846991E9CEA71CF780240A0DA77F9096)
Полное имя : D:VideoO Shmidte.2002.BDRip.AVC.mkv
Формат : Matroska
Версия формата : Version 4 / Version 2
Размер файла : 2,92 Гбайт
Продолжительность : 2 ч. 5 м.
Общий поток : 3336 Кбит/сек
Дата кодирования : UTC 2015-03-12 05:11:55
Программа кодирования : mkvmerge v7.7.0 ('Six Voices') 64bit built on Feb 28 2015 23:39:33
Библиотека кодирования : libebml v1.3.1 + libmatroska v1.4.2
_STATISTICS_WRITING_APP : mkvmerge v7.7.0 ('Six Voices') 64bit built on Feb 28 2015 23:39:33
_STATISTICS_WRITING_DATE_UTC : 2015-03-12 05:11:55
_STATISTICS_TAGS : BPS DURATION NUMBER_OF_FRAMES NUMBER_OF_BYTES
DURATION : 02:03:34.824000000
NUMBER_OF_FRAMES : 1404
NUMBER_OF_BYTES : 56999

Видео
Идентификатор : 1
Формат : AVC
Формат/Информация : Advanced Video Codec
Профиль формата : High@L4.1
Параметр CABAC формата : Да
Параметр ReFrames формата : 9 кадров
Идентификатор кодека : V_MPEG4/ISO/AVC
Продолжительность : 2 ч. 5 м.
Битрейт : 2182 Кбит/сек
Ширина : 1024 пикселя
Высота : 576 пикселей
Соотношение сторон : 16:9
Режим частоты кадров : Постоянный
Частота кадров : 23,976 кадра/сек
Цветовое пространство : YUV
Субдискретизация насыщенности : 4:2:0
Битовая глубина : 8 бит
Тип развёртки : Прогрессивная
Бит/(Пиксели*Кадры) : 0.154
Размер потока : 1,91 Гбайт (65%)
Заголовок : BDRip -- STarankov
Библиотека кодирования : x264 core 142 r2431 ac76440
Настройки программы : cabac=1 / ref=9 / deblock=1:-2:-2 / analyse=0x3:0x113 / me=umh / subme=10 / psy=1 / psy_rd=1.00:0.15 / mixed_ref=1 / me_range=32 / chroma_me=1 / trellis=2 / 8x8dct=1 / cqm=0 / deadzone=21,11 / fast_pskip=1 / chroma_qp_offset=-3 / threads=6 / lookahead_threads=1 / sliced_threads=0 / nr=0 / decimate=1 / interlaced=0 / bluray_compat=0 / constrained_intra=0 / bframes=8 / b_pyramid=2 / b_adapt=2 / b_bias=0 / direct=3 / weightb=1 / open_gop=0 / weightp=2 / keyint=230 / keyint_min=23 / scenecut=40 / intra_refresh=0 / rc_lookahead=40 / rc=crf / mbtree=0 / crf=18.0 / qcomp=0.60 / qpmin=0 / qpmax=69 / qpstep=4 / vbv_maxrate=40000 / vbv_bufsize=50000 / crf_max=0.0 / nal_hrd=none / filler=0 / ip_ratio=1.40 / pb_ratio=1.30 / aq=1:1.00
Язык : English
Default : Да
Forced : Нет
DURATION : 02:05:25.769000000
NUMBER_OF_FRAMES : 180438
NUMBER_OF_BYTES : 2112915869
_STATISTICS_WRITING_APP : mkvmerge v7.7.0 ('Six Voices') 64bit built on Feb 28 2015 23:39:33
_STATISTICS_WRITING_DATE_UTC : 2015-03-12 05:11:55
_STATISTICS_TAGS : BPS DURATION NUMBER_OF_FRAMES NUMBER_OF_BYTES

Аудио #1
Идентификатор : 2
Формат : AC-3
Формат/Информация : Audio Coding 3
Расширение режима : CM (complete main)
Параметр Endianness формата : Big
Идентификатор кодека : A_AC3
Продолжительность : 2 ч. 5 м.
Вид битрейта : Постоянный
Битрейт : 448 Кбит/сек
Каналы : 6 каналов
Расположение каналов : Front: L C R, Side: L R, LFE
Частота : 48,0 КГц
Битовая глубина : 16 бит
Метод сжатия : С потерями
Размер потока : 402 Мбайт (13%)
Заголовок : MVO
Язык : Russian
Default : Да
Forced : Нет

Аудио #2
Идентификатор : 3
Формат : AC-3
Формат/Информация : Audio Coding 3
Расширение режима : CM (complete main)
Параметр Endianness формата : Big
Идентификатор кодека : A_AC3
Продолжительность : 2 ч. 5 м.
Вид битрейта : Постоянный
Битрейт : 192 Кбит/сек
Каналы : 2 канала
Расположение каналов : Front: L R
Частота : 48,0 КГц
Битовая глубина : 16 бит
Метод сжатия : С потерями
Размер потока : 172 Мбайт (6%)
Заголовок : DVO
Язык : Russian
Default : Нет
Forced : Нет

Аудио #3
Идентификатор : 4
Формат : AC-3
Формат/Информация : Audio Coding 3
Расширение режима : CM (complete main)
Параметр Endianness формата : Big
Идентификатор кодека : A_AC3
Продолжительность : 2 ч. 5 м.
Вид битрейта : Постоянный
Битрейт : 448 Кбит/сек
Каналы : 6 каналов
Расположение каналов : Front: L C R, Side: L R, LFE
Частота : 48,0 КГц
Битовая глубина : 16 бит
Метод сжатия : С потерями
Размер потока : 402 Мбайт (13%)
Заголовок : Original
Язык : English
Default : Нет
Forced : Нет

Текст #1
Идентификатор : 5
Формат : UTF-8
Идентификатор кодека : S_TEXT/UTF8
Идентификатор кодека/Информация : UTF-8 Plain Text
Заголовок : русский
Язык : Russian
Default : Нет
Forced : Нет

Текст #2
Идентификатор : 6
Формат : UTF-8
Идентификатор кодека : S_TEXT/UTF8
Идентификатор кодека/Информация : UTF-8 Plain Text
Заголовок : английский
Default : Нет
Forced : Нет

Меню
00:00:00.000 : :Chapter 01
00:10:21.619 : :Chapter 02
00:19:56.194 : :Chapter 03
00:29:35.773 : :Chapter 04
00:40:05.986 : :Chapter 05
00:50:13.760 : :Chapter 06
01:00:49.228 : :Chapter 07
01:10:38.817 : :Chapter 08
01:19:10.954 : :Chapter 09
01:31:14.719 : :Chapter 10
01:39:11.487 : :Chapter 11
01:53:50.323 : :Chapter 12
02:00:21.047 : :Chapter 13
02:05:25.518 : :Chapter 14
pb.wtf



Скачать О Шмидте через торрент http://i68.fastpic.ru/big/2015/0223/4b/b5272fdb0d6da072be1fadaa0a2c6e4b.jpg Скачать фильм О Шмидте через торрент бесплантно в хорошем качестве Описание: История Уоррена Шмидта, работавшего в страховой компании. После ухода на покой, он начинает переосмысливать прожитую жизнь, ... 10 10 1
Торрент: Зарегистрирован [2015-03-12 08:09] · скачан: 85 раз
Статус: √ проверено
Размер: 2.92 GB
Как cкачать? Как скачать О Шмидте через торрент | qTorrent

% Раздел Тема Автор DL S | L
Фильмы [HD 720p, 1080p] (Хороший звук DUB, MVO) [ 11.59 GB ] О Шмидте / About Schmidt [2002 BDRip 1080p] MVO DVO msltel Скачать
1 | 0
Фильмы [HD 720p, 1080p] (Хороший звук DUB, MVO) [ 5.23 GB ] О Шмидте / About Schmidt [2002 BDRip 720p] MVO DVO msltel Скачать
1 | 0


>> Регистрируемся здесь <<






Отзывы и комментарии о схеме читаем и пишем здесь: ---> Отзывы и комментарии о схеме

Новые благодарочки в телеграм довольных пользователей:
скриншот   скриншот   скриншот   скриншот   скриншот
    Дорогой пользователь! Огромная просьба, поблагодарите релизера, оцените раздачу и оставьте свои комментарий, если Вы скачали О Шмидте через торрент бесплатно! Внесите свою лепту в развитие PiratBit!
    Комментировать посты могут только пользователи прошедшие не сложную регистрацию
    Показать сообщения:    

    О Шмидте через торрент
    Скачать бесплатно О Шмидте
    О Шмидте скачать торрент
    О Шмидте смотреть онлайн
    Cкачать фильм О Шмидте бесплатно
    О Шмидте скачать торрент в хорошем качестве
    О Шмидте смотреть онлайн бесплатно в хорошем качестве


    Вы не можете начинать темы
    Вы не можете отвечать на сообщения
    Вы не можете редактировать свои сообщения
    Вы не можете удалять свои сообщения
    Вы не можете голосовать в опросах
    Вы не можете прикреплять файлы к сообщениям
    Вы можете скачивать файлы