Ссылка на приватное зеркало нашего сайта всего за 1$. Внимание количество ограничено!!!

2 сезон

iTunes

1 сезон

1

iTunes

iTunes

iTunes

1 сезон

RePack

30

ИГРА 18+

pack

ВАЖНО

!!Акция!!

Alien_RageХит недели

RePack

MK11
pack

Забери бонус

RePack

jed

!!Акция!!

Alien_Rage

RePack

fifa19

RePack

Assassins Creed: Odyssey

RePack

NEED FOR SPEED™ PAYBACK

4 сезон

9 сезон

Бесстыжие 9 сезон

Все сериалы

все сериалы на PB.wtf

RePack

FAR CRY 5
  

Универ 8 сезон 3 серия pb.wtf

Универ 8 сезон 3 серия через торрент pb.wtf

Размер: 327 MB | Добавлен: 5 лет 7 мес. назад | Торрент скачан:343 раза
Скачать  

12-03-2015 10:45 Универ 8 сезон 3 серия Скачать торрент  

Универ 8 Сезон



  • Год выпуска: 2015
  • Страна: Россия
  • Жанр: комедия

  • Продолжительность: 00:24:51
  • Перевод: Не требуется

  • Режиссер: Константин Смирнов, Максим Зыков
  • В ролях:

    Арарат Кещян (Майкл), Станислав Ярушин (Антон), Анна Кузина (Яна Семакина), Настасья Самбурская (Кристина Соколовская), Анна Хилькевич (Маша Белова), Елена Валюшкина (Зоя Михайловна), Ашот Кещян (Брат Майкла)

  • Описание:
    "Универ. Новая общага" - продолжение сериала "Универ". Оставленным на второй год пятикурсникам Антону и Кузе привалило счастье. Их старая общага идет под снос, и в новом корпусе их селят в блок с тремя девушками - Кристиной, Машей и Яной. В роли аспиранта в универ возвращается и Майкл - чтобы откосить от армии. Ребята стали старше и романтичнее. Теперь им хочется не только секса и тусовок, но и настоящих чувств. Однако вызвать взаимность у зазноб не так просто, как кажется..
  • Рейтинг:



  • Качество: SATRip
  • Формат: :AVI
  • Видео кодек: XviD
  • Аудио кодек: MP3
  • Видео: 720x400 (16:9), 1899 kbps, 25 fps, 0,264 bpp
  • Аудио: 2.0 / 48 kHz / 128 kbps
  • Релиз от: GEKADOL

    Код:

    General
    Complete name                            : D:\Фильмы\Univer.novaja.obshhaga.8.03.SATRip.avi
    Format                                   : AVI
    Format/Info                              : Audio Video Interleave
    File size                                : 361 MiB
    Duration                                 : 24mn 51s
    Overall bit rate                         : 2 032 Kbps
    Writing library                          : VirtualDub build 35491/release

    Video
    ID                                       : 0
    Format                                   : MPEG-4 Visual
    Format profile                           : Advanced Simple@L5
    Format settings, BVOP                    : 1
    Format settings, QPel                    : No
    Format settings, GMC                     : No warppoints
    Format settings, Matrix                  : Default (H.263)
    Muxing mode                              : Packed bitstream
    Codec ID                                 : XVID
    Codec ID/Hint                            : XviD
    Duration                                 : 24mn 51s
    Bit rate                                 : 1 899 Kbps
    Width                                    : 720 pixels
    Height                                   : 400 pixels
    Display aspect ratio                     : 16:9
    Frame rate                               : 25.000 fps
    Color space                              : YUV
    Chroma subsampling                       : 4:2:0
    Bit depth                                : 8 bits
    Scan type                                : Progressive
    Compression mode                         : Lossy
    Bits/(Pixel*Frame)                       : 0.264
    Stream size                              : 338 MiB (93%)
    Writing library                          : XviD 64

    Audio
    ID                                       : 1
    Format                                   : MPEG Audio
    Format version                           : Version 1
    Format profile                           : Layer 3
    Mode                                     : Joint stereo
    Mode extension                           : MS Stereo
    Codec ID                                 : 55
    Codec ID/Hint                            : MP3
    Duration                                 : 24mn 51s
    Bit rate mode                            : Constant
    Bit rate                                 : 128 Kbps
    Channel(s)                               : 2 channels
    Sampling rate                            : 44.1 KHz
    Compression mode                         : Lossy
    Stream size                              : 22.7 MiB (6%)
    Alignment                                : Split accross interleaves
    Interleave, duration                     : 16386 ms (409.65 video frames)


    Скриншоты:
    скриншот   скриншот   скриншот   скриншот   скриншот  
    скриншот  


    pb.wtf



  • Скачать Универ 8 сезон 3 серия через торрент http://pic1.kartinco.top/images/10/i8ka6.jpg Скачать фильм Универ 8 сезон 3 сериячерез торрент бесплантно в хорошем качестве Описание: "Универ. Новая общага" - продолжение сериала "Универ". Оставленным на второй год пятикурсникам Антону и Кузе привалило счастье. ... 10 10 5
    Торрент: Зарегистрирован [2015-03-12 10:45] · скачан: 343 раз
    Статус: √ проверено
    Размер: 327 MB
    Как cкачать? Как скачать Универ 8 сезон 3 серия через торрент | qTorrent

    28-11-2019 20:33  

    Отключить всю рекламу на сайте

      Дорогой пользователь! Огромная просьба, поблагодарите релизера, оцените раздачу и оставьте свои комментарий, если Вы скачали Универ 8 сезон 3 серия через торрент бесплатно! Внесите свою лепту в развитие PiratBit!
      Комментировать посты могут только пользователи прошедшие не сложную регистрацию
      Показать сообщения:    

      Универ 8 сезон 3 серия через торрент
      Скачать бесплатно Универ 8 сезон 3 серия
      Универ 8 сезон 3 серия скачать торрент
      Универ 8 сезон 3 серия смотреть онлайн
      Cкачать фильм Универ 8 сезон 3 серия бесплатно
      Универ 8 сезон 3 серия скачать торрент в хорошем качестве
      Универ 8 сезон 3 серия смотреть онлайн бесплатно в хорошем качестве


      Вы не можете начинать темы
      Вы не можете отвечать на сообщения
      Вы не можете редактировать свои сообщения
      Вы не можете удалять свои сообщения
      Вы не можете голосовать в опросах
      Вы не можете прикреплять файлы к сообщениям
      Вы можете скачивать файлы