2 сезон

iTunes

MVO

1

2 сезон

iTunes

iTunes

1 сезон

RePack

30

Новинка

ВАЖНО

ИГРА 18+

pack

RePack

MK11
pack

Легкие деньги

RePack

jed

RePack

fifa19

RePack

RDR2

RePack

NEED FOR SPEED™ PAYBACK

4 сезон

9 сезон

Бесстыжие 9 сезон

Все сериалы

все сериалы на PB.wtf

RePack

FAR CRY 5

Anonymous, доброе утро, мы не успеваем собрать деньги на оплату серверов за декабрь и январь, помогите нам пожалуйста в это трудное время. В качестве благодарности мы отключим Вам всю рекламу на сайте (укажите свой ник в строку Ваше имя)!

×
  
Magnet ссылка

Летняя ночь в Барселоне / Barcelona, nit d'estiu (Дани де ла Орден ) [2013, драма, мелодрама, комедия, HDRip, Профессиональный многоголосый [НТВ+] pb.wtf

Летняя ночь в Барселоне через торрент pb.wtf

Размер: 1.37 GB | Добавлен: 5 лет 10 мес. назад | Торрент скачан:178 раз
Скачать  

12-03-2015 18:46 Летняя ночь в Барселоне Скачать торрент  


Летняя ночь в Барселоне / Barcelona, nit d'estiu


ИНФОРМАЦИЯ:
Год выпуска:2013
Страна: Испания
Жанр: драма, мелодрама, комедия
Продолжительность: 01:35:55
Перевод: Профессиональный многоголосый [НТВ+]
Режиссер: Дани де ла Орден

В Ролях:


Франсеск Коломер (Guillem), Хан Корнет (Héctor), Жоан Дауза (Joan), Лаура де ла Исла (Anna), Miki Esparbé (Carles), Сара Эспигуль (Judit), Луис Фернандес (Marc), Марк Гарсиа Коте (Albert), Марта Солер (Clara), Мар дель Ойо (Roser), Алекс Моннер (Jordi), Жорди Перес (Josep)

ОПИСАНИЕ:
Ночью 18 августа 2013-го года темное небо Барселоны озарила комета Роза, пролетев над землей и погаснув навсегда. В ту же ночь между людьми вспыхивали новые чувства, а у других той же ночью они угасали. Воздух был полон шепотов страсти, нежности, любви и сдавленных слез. В ту ночь под небом прекрасной Барселоны разыгрались шесть любовных историй...

  • Мировая премьера:7 августа 2013

    ТЕХ.ДАННЫЕ:
    Качество: HDRip
    Формат: AVI
    Видео кодек: XviD
    Аудио кодек: AC3
    Видео: XviD, 720x304 (2.35:1), 1385 kbps, 24 fps, 0,264 bpp
    Аудио №1: AC3 / 5.1 / 48 kHz / 448 kbps / Russian
    Аудио №2: AC3 / 5.1 / 48 kHz / 192 kbps / German



    Код:

    General
    Complete name                            : D:\Торенты\Letnyaj.nochj.v.Barselone.2013.P.HDRip.1400MB.avi
    Format                                   : AVI
    Format/Info                              : Audio Video Interleave
    File size                                : 1.37 GiB
    Duration                                 : 1h 35mn
    Overall bit rate                         : 2 040 Kbps
    Writing application                      : VirtualDubMod 1.5.10.2 (build 2540/release)
    Writing library                          : VirtualDubMod build 2540/release

    Video
    ID                                       : 0
    Format                                   : MPEG-4 Visual
    Format profile                           : Advanced Simple@L5
    Format settings, BVOP                    : 2
    Format settings, QPel                    : No
    Format settings, GMC                     : No warppoints
    Format settings, Matrix                  : Default (MPEG)
    Codec ID                                 : XVID
    Codec ID/Hint                            : XviD
    Duration                                 : 1h 35mn
    Bit rate                                 : 1 386 Kbps
    Width                                    : 720 pixels
    Height                                   : 304 pixels
    Display aspect ratio                     : 2.35:1
    Frame rate                               : 24.000 fps
    Color space                              : YUV
    Chroma subsampling                       : 4:2:0
    Bit depth                                : 8 bits
    Scan type                                : Progressive
    Compression mode                         : Lossy
    Bits/(Pixel*Frame)                       : 0.264
    Stream size                              : 951 MiB (68%)
    Writing library                          : XviD 1.2.1 (UTC 2008-12-04)

    Audio #1
    ID                                       : 1
    Format                                   : AC-3
    Format/Info                              : Audio Coding 3
    Mode extension                           : CM (complete main)
    Codec ID                                 : 2000
    Duration                                 : 1h 35mn
    Bit rate mode                            : Constant
    Bit rate                                 : 448 Kbps
    Channel(s)                               : 6 channels
    Channel positions                        : Front: L C R, Side: L R, LFE
    Sampling rate                            : 48.0 KHz
    Bit depth                                : 16 bits
    Compression mode                         : Lossy
    Stream size                              : 307 MiB (22%)
    Alignment                                : Split accross interleaves
    Interleave, duration                     : 42 ms (1.00 video frame)
    Interleave, preload duration             : 500 ms

    Audio #2
    ID                                       : 2
    Format                                   : AC-3
    Format/Info                              : Audio Coding 3
    Mode extension                           : CM (complete main)
    Codec ID                                 : 2000
    Duration                                 : 1h 35mn
    Bit rate mode                            : Constant
    Bit rate                                 : 192 Kbps
    Channel(s)                               : 6 channels
    Channel positions                        : Front: L C R, Side: L R, LFE
    Sampling rate                            : 48.0 KHz
    Bit depth                                : 16 bits
    Compression mode                         : Lossy
    Stream size                              : 132 MiB (9%)
    Alignment                                : Split accross interleaves
    Interleave, duration                     : 42 ms (1.00 video frame)
    Interleave, preload duration             : 500 ms

    Скриншоты:


    © Оформление by Ворон
    pb.wtf



  • Скачать Летняя ночь в Барселоне через торрент https://pic.kartinco.top/images/6/ordi9.jpg Скачать фильм Летняя ночь в Барселоне через торрент бесплантно в хорошем качестве Е:Ночью 18 августа 2013-го года темное небо Барселоны озарила комета Роза, пролетев над землей и погаснув навсегда. В ту же ночь между ... 9.8 10 8
    Торрент: Зарегистрирован [2015-03-12 18:46] · скачан: 178 раз
    Статус: √ проверено
    Размер: 1.37 GB
    Как cкачать? Как скачать Летняя ночь в Барселоне через торрент | UTorrent

    28-11-2019 20:33  

    Отключить всю рекламу на сайте

      Дорогой пользователь! Огромная просьба, поблагодарите релизера, оцените раздачу и оставьте свои комментарий, если Вы скачали Летняя ночь в Барселоне через торрент бесплатно! Внесите свою лепту в развитие PiratBit!
      Комментировать посты могут только пользователи прошедшие не сложную регистрацию
      Показать сообщения:    

      Летняя ночь в Барселоне через торрент
      Скачать бесплатно Летняя ночь в Барселоне
      Летняя ночь в Барселоне скачать торрент
      Летняя ночь в Барселоне смотреть онлайн
      Cкачать фильм Летняя ночь в Барселоне бесплатно
      Летняя ночь в Барселоне скачать торрент в хорошем качестве
      Летняя ночь в Барселоне смотреть онлайн бесплатно в хорошем качестве


      Вы не можете начинать темы
      Вы не можете отвечать на сообщения
      Вы не можете редактировать свои сообщения
      Вы не можете удалять свои сообщения
      Вы не можете голосовать в опросах
      Вы не можете прикреплять файлы к сообщениям
      Вы можете скачивать файлы