2 сезон

iTunes

1 сезон

1

iTunes

iTunes

iTunes

1 сезон

RePack

30

ИГРА 18+

pack

ВАЖНО

!!Акция!!

Alien_RageХит недели

RePack

MK11
pack

Забери бонус

RePack

jed

!!Акция!!

Alien_Rage

RePack

fifa19

RePack

Assassins Creed: Odyssey

RePack

NEED FOR SPEED™ PAYBACK

4 сезон

9 сезон

Бесстыжие 9 сезон

Все сериалы

все сериалы на PB.wtf

RePack

FAR CRY 5
  

Бадди Хатчинс / Buddy Hutchins (Джаред Кон ) [2014, триллер, WEB-DLRip, Любительский (одноголосый) [Xixidok] pb.wtf

Бадди Хатчинс через торрент pb.wtf

Размер: 1.3 GB | Добавлен: 5 лет 7 мес. назад | Торрент скачан:150 раз
Скачать  

12-03-2015 19:48 Бадди Хатчинс Скачать торрент  


Бадди Хатчинс / Buddy Hutchins
«His Bad Day is Now Your Bad Day»

ИНФОРМАЦИЯ:
Год выпуска:2014
Страна: США
Жанр: триллер
Продолжительность: 01:36:46
Перевод: Любительский (одноголосый) [Xixidok]
Режиссер: Джаред Кон

В Ролях:


Джейми Кеннеди (Buddy Hutchins), Сэлли Кёркленд (Bertha), Сара Малакул Лэйн (Evelyn), Дэвид Гир (Don), Стив Хэнкс (Troy), Николь Александра Шипли (Carol), Деметриус Стеар (Ryan), Remington Moses (Stephanie), Richard Switzer (Joel Hutchins), Эдвард ДеРуитер (Limmy), Хирам А. Мюррэй (Detective Hunter), Эрин О’Брайэн (Allison)

ОПИСАНИЕ:
Бадди Хатчинс - обычный парень, который делает всё возможное, чтобы содержать жену и двух детей. Выздоравливающий алкоголик Бадди не выпивал уже больше года, но оказывается, что единственная награда за свой трезвый образ жизни - это неудачи в бизнесе и измена жены. И вот когда чаша терпения переполнена, достаточно небольшого толчка, маленькой оплеухи или грубого слова, чтобы такой парень взял в руки бензопилу и пошёл крушить всё вокруг.


ТЕХ.ДАННЫЕ:
Качество: WEB-DLRip
Формат: AVI
Видео кодек: XviD
Аудио кодек: MP3
Видео: XviD, 720x304 (2.35:1), 1729 kbps, 23,976 fps, 0,315 bpp
Аудио: MP3 / 2.0 / 44 kHz / 192 kbps /



Код:

General
Complete name                            : D:\Торенты\Buddy.Hutchins.2015.WEBDLRip.L1.avi
Format                                   : AVI
Format/Info                              : Audio Video Interleave
File size                                : 1.30 GiB
Duration                                 : 1h 36mn
Overall bit rate                         : 1 930 Kbps
Writing application                      : VirtualDubMod 1.5.10.3 (build 2550/release)
Writing library                          : VirtualDubMod build 2550/release

Video
ID                                       : 0
Format                                   : MPEG-4 Visual
Format profile                           : Advanced Simple@L5
Format settings, BVOP                    : 2
Format settings, QPel                    : No
Format settings, GMC                     : No warppoints
Format settings, Matrix                  : Default (H.263)
Muxing mode                              : Packed bitstream
Codec ID                                 : XVID
Codec ID/Hint                            : XviD
Duration                                 : 1h 36mn
Bit rate                                 : 1729 Kbps
Width                                    : 720 pixels
Height                                   : 304 pixels
Display aspect ratio                     : 2.35:1
Frame rate                               : 23.976 fps
Color space                              : YUV
Chroma subsampling                       : 4:2:0
Bit depth                                : 8 bits
Scan type                                : Progressive
Compression mode                         : Lossy
Bits/(Pixel*Frame)                       : 0.315
Stream size                              : 1.12 GiB (86%)
Writing library                          : XviD 64

Audio
ID                                       : 1
Format                                   : MPEG Audio
Format version                           : Version 1
Format profile                           : Layer 3
Codec ID                                 : 55
Codec ID/Hint                            : MP3
Duration                                 : 1h 36mn
Bit rate mode                            : Constant
Bit rate                                 : 192 Kbps
Channel(s)                               : 2 channels
Sampling rate                            : 44.1 KHz
Compression mode                         : Lossy
Stream size                              : 133 MiB (10%)
Alignment                                : Split accross interleaves

Скриншоты:


© Оформление by Ворон
pb.wtf



Скачать Бадди Хатчинс через торрент http://pic.kartinco.top/images/6/ordi9.jpg Скачать фильм Бадди Хатчинс через торрент бесплантно в хорошем качестве Е:Бадди Хатчинс - обычный парень, который делает всё возможное, чтобы содержать жену и двух детей. Выздоравливающий алкоголик Бадди не ... 8.1 10 7
Торрент: Зарегистрирован [2015-03-12 19:48] · скачан: 150 раз
Статус: T временная
Размер: 1.3 GB
Как cкачать? Как скачать Бадди Хатчинс через торрент | qTorrent



Последний раз редактировалось: Ворон (2015-03-12 20:11), всего редактировалось 1 раз

28-11-2019 20:33  

Отключить всю рекламу на сайте

12-03-2015 19:57 Бадди Хатчинс Скачать торрент  

ООО Да это типа Postal возвращается!? :hunter:pb.wtf



12-03-2015 20:17 Бадди Хатчинс Скачать торрент  

Соломон Немни писал(а):

А не, не качать, там: Перевод: [Xixidok] - сразу не увидел.

Ну благодаря таким "переводчикам" многие видят фильмы о которых никто не знал и не слышал. И в профке они маловероятно что появляться. Но на вкус и цвет как говориться)=pb.wtf



12-03-2015 21:19 Бадди Хатчинс Скачать торрент  

Ворон писал(а):

Соломон Немни писал(а):

А не, не качать, там: Перевод: [Xixidok] - сразу не увидел.

Ну благодаря таким "переводчикам" многие видят фильмы о которых никто не знал и не слышал. И в профке они маловероятно что появляться. Но на вкус и цвет как говориться)=

когда "фильм" выходит в такой "озвучке" - один из признаков того, что лучше бы "фильм" вообще не снимали.pb.wtf



    Дорогой пользователь! Огромная просьба, поблагодарите релизера, оцените раздачу и оставьте свои комментарий, если Вы скачали Бадди Хатчинс через торрент бесплатно! Внесите свою лепту в развитие PiratBit!
    Комментировать посты могут только пользователи прошедшие не сложную регистрацию
    Показать сообщения:    

    Бадди Хатчинс через торрент
    Скачать бесплатно Бадди Хатчинс
    Бадди Хатчинс скачать торрент
    Бадди Хатчинс смотреть онлайн
    Cкачать фильм Бадди Хатчинс бесплатно
    Бадди Хатчинс скачать торрент в хорошем качестве
    Бадди Хатчинс смотреть онлайн бесплатно в хорошем качестве


    Вы не можете начинать темы
    Вы не можете отвечать на сообщения
    Вы не можете редактировать свои сообщения
    Вы не можете удалять свои сообщения
    Вы не можете голосовать в опросах
    Вы не можете прикреплять файлы к сообщениям
    Вы можете скачивать файлы