Ссылка на приватное зеркало нашего сайта всего за 1$. Внимание количество ограничено!!!

2 сезон

iTunes

1 сезон

1

2 сезон

2 сезон

iTunes

1 сезон

RePack

30

Ultimate

ВАЖНО

ИГРА 18+

pack

RePack

MK11
pack

Забери бонус

RePack

jed

!!Акция!!

Alien_Rage

RePack

fifa19

RePack

Assassins Creed: Odyssey

RePack

NEED FOR SPEED™ PAYBACK

4 сезон

9 сезон

Бесстыжие 9 сезон

Все сериалы

все сериалы на PB.wtf

RePack

FAR CRY 5
  

Сверхспособности / Сверхсилы / Powers / Сезон: 1 / Серии 1-10 из 10 (Дэвид Петрарка / David Petrarca, Микаэл Саломон / Mikael Salomon, Билл Иглз / Bill Eagles) [2015, США, фантастика, драма, криминал, WEBRip] MVO [BaibaKo] pb.wtf

Сверхспособности через торрент pb.wtf

Размер: 5.48 GB | Добавлен: 5 лет 6 мес. назад | Торрент скачан:281 раз
Скачать  

13-03-2015 04:57 Сверхспособности Скачать торрент  

Сверхспособности / Сверхсилы / Powers
«Реальная Влacть находится за пределами»


  • Год выпуска: 2015
  • Страна: США
  • Жанр: фантастика, драма, криминал
  • Продолжительность: 00:45:24
  • Перевод: Профессиональный многоголосый закадровый [BaibaKo]

  • Режиссер: Дэвид Петрарка / David Petrarca, Микаэл Саломон / Mikael Salomon, Билл Иглз / Bill Eagles
  • В ролях:

    Шарлто Копли (Christian Walker), Эдди Иззард (Wolfe), Мишель Форбс (Retro Girl), Сьюзэн Хэйард (Deena Pilgrim (2014)), Ноа Тейлор (Johnny Royalle), Логан Браунинг (Zora), Джастис Лик (Kutter), Эндрю Сенсениг (Triphammer), Адам Годли (Captain Cross (2014)), Филлип ДеВона (Zabriski), Аарон Фарб (Simons (2014)), Джонни Джикалон (Cancilarra)

  • Описание:
    Сюжет сериала разворачивается в мире, где супергерои живут среди обычных людей. Сотрудники убойного отдела Кристиан Уокер и Дина Пилгрим занимаются защитой простых людей от преступников со сверхспособностями и расследуют дела, в которых замешаны эти супергерои.
  • Рейтинг:



  • Качество: WEBRip
  • Формат: :MPEG-4
  • Видео кодек: AVC
  • Аудио кодек: AAC LC
  • Видео: 768x408 (1.882), 850 kbps, 29,970 fps, 0,091 bpp
  • Аудио №1: русский / 2.0 / 48 kHz / 162 kbps
  • Аудио №2: английский / 2.0 / 48 kHz / 162 kbps
  • Релиз от: GEKADOL

    Код:

    Внимание! Раздача ведётся путём добавления новых серий; при каждом добавлении создаётся новый торрент. Чтобы начать докачку новой серии, пользователям необходимо сделать следующее:
    (1) остановить скачивание,
    (2) удалить старый торрент у себя из клиента (старые серии удалять не надо),
    (3) скачать новый торрент и запустить его у себя в клиенте вместо старого, при этом указать клиенту путь в старую папку куда и должно происходить скачивание новых серий.
    Ваш клиент при этом должен произвести хеширование (проверку) старой папки (если не производит сам - помогите ему сделать это), и будет докачивать только те серии которых у вас ещё нет. Старые серии при этом не удаляются, а продолжают раздаваться!
    Eсли вы уже удалили старые серии, то предотвратить повторную закачку старых серий можно, отжав галочку в соответсвующих местах при запуске нового торрента. По возможности, желательно не удалять старые серии как можно дольше чтобы релизёр не столько продолжал раздавать старые серии, а смог сконцентрироваться на новых.


    Код:

    General
    Complete name                            : D:\Фильмы\Powers.s01.WEBRip.x264.BaibaKo\Powers.s01e02.WEBRip.x264.Rus.Eng.BaibaKo.tv.mp4
    Format                                   : MPEG-4
    Format profile                           : Base Media
    Codec ID                                 : isom
    File size                                : 377 MiB
    Duration                                 : 45mn 24s
    Overall bit rate mode                    : Variable
    Overall bit rate                         : 1 159 Kbps
    Encoded date                             : UTC 2015-03-13 02:29:57
    Tagged date                              : UTC 2015-03-13 02:29:57

    Video
    ID                                       : 1
    Format                                   : AVC
    Format/Info                              : Advanced Video Codec
    Format profile                           : Main@L3.0
    Format settings, CABAC                   : Yes
    Format settings, ReFrames                : 1 frame
    Codec ID                                 : avc1
    Codec ID/Info                            : Advanced Video Coding
    Duration                                 : 45mn 24s
    Bit rate                                 : 850 Kbps
    Maximum bit rate                         : 6 159 Kbps
    Width                                    : 768 pixels
    Height                                   : 408 pixels
    Display aspect ratio                     : 1.882
    Frame rate mode                          : Constant
    Frame rate                               : 29.970 fps
    Color space                              : YUV
    Chroma subsampling                       : 4:2:0
    Bit depth                                : 8 bits
    Scan type                                : Progressive
    Bits/(Pixel*Frame)                       : 0.091
    Stream size                              : 269 MiB (72%)
    Writing library                          : x264 core 129
    Encoding settings                        : cabac=1 / ref=1 / deblock=1:0:0 / analyse=0x1:0x131 / me=dia / subme=2 / psy=1 / psy_rd=1.00:0.00 / mixed_ref=0 / me_range=16 / chroma_me=1 / trellis=0 / 8x8dct=0 / cqm=0 / deadzone=21,11 / fast_pskip=1 / chroma_qp_offset=0 / threads=4 / lookahead_threads=1 / sliced_threads=0 / nr=0 / decimate=1 / interlaced=0 / bluray_compat=0 / constrained_intra=0 / bframes=0 / weightp=2 / keyint=250 / keyint_min=25 / scenecut=40 / intra_refresh=0 / rc_lookahead=40 / rc=abr / mbtree=1 / bitrate=850 / ratetol=1.0 / qcomp=0.60 / qpmin=10 / qpmax=51 / qpstep=4 / ip_ratio=1.41 / aq=1:1.00
    Tagged date                              : UTC 2015-03-13 02:30:25

    Audio #1
    ID                                       : 2
    Format                                   : AAC
    Format/Info                              : Advanced Audio Codec
    Format profile                           : LC
    Codec ID                                 : 40
    Duration                                 : 45mn 24s
    Bit rate mode                            : Variable
    Bit rate                                 : 163 Kbps
    Maximum bit rate                         : 214 Kbps
    Channel(s)                               : 2 channels
    Channel positions                        : Front: L R
    Sampling rate                            : 48.0 KHz
    Compression mode                         : Lossy
    Stream size                              : 52.9 MiB (14%)
    Language                                 : Russian
    Encoded date                             : UTC 2015-03-13 02:30:20
    Tagged date                              : UTC 2015-03-13 02:30:25

    Audio #2
    ID                                       : 3
    Format                                   : AAC
    Format/Info                              : Advanced Audio Codec
    Format profile                           : LC
    Codec ID                                 : 40
    Duration                                 : 45mn 24s
    Bit rate mode                            : Variable
    Bit rate                                 : 163 Kbps
    Maximum bit rate                         : 203 Kbps
    Channel(s)                               : 2 channels
    Channel positions                        : Front: L R
    Sampling rate                            : 48.0 KHz
    Compression mode                         : Lossy
    Stream size                              : 52.8 MiB (14%)
    Language                                 : English
    Encoded date                             : UTC 2015-03-13 02:30:22
    Tagged date                              : UTC 2015-03-13 02:30:25


    Скриншоты:
    скриншот   скриншот   скриншот   скриншот   скриншот  
    скриншот  

    Раздача ведётся путём добавления новых серий. Добавлена 10 серия (06.05.2015).Просьба перекачать торрент файл.

    pb.wtf



  • Скачать Сверхспособности через торрент http://i67.fastpic.ru/big/2015/0313/2e/e36a56dc19d6484c1b3384b87a46ec2e.jpg Скачать фильм Сверхспособности через торрент бесплантно в хорошем качестве Описание: Сюжет сериала разворачивается в мире, где супергерои живут среди обычных людей. Сотрудники убойного отдела Кристиан Уокер и Дина ... 8.7 10 39
    Info! Золотая раздача, скачанное не засчитывается.
    Торрент: Зарегистрирован [2015-05-06 01:16] · скачан: 281 раз
    Статус: √ проверено
    Размер: 5.48 GB
    Как cкачать? Как скачать Сверхспособности через торрент | qTorrent

    % Раздел Тема Автор DL S | L
    Зарубежные сериалы [ 7.64 GB ] Сверхсилы / Сверхспособности / Powers / Сезон: 2 / Серии 1-10 из 10 [2016 WEB-DLRip-AVC] MVO [BaibaKo] GEKADOL Скачать
    1 | 0


    Последний раз редактировалось: GEKADOL (2015-05-06 01:15), всего редактировалось 8 раз(а)

    28-11-2019 20:33  

    Отключить всю рекламу на сайте

    13-03-2015 08:36 Сверхспособности Скачать торрент  

    Спасибо!pb.wtf



    13-03-2015 09:25 Сверхспособности Скачать торрент  

    miila писал(а):

    Спасибо!

    Не за что) pb.wtf



    13-03-2015 21:25 Сверхспособности Скачать торрент  

    Что за трек в титрах?pb.wtf



    16-03-2015 12:41 Сверхспособности Скачать торрент  

    Капустин кстати петух.pb.wtf



    27-03-2015 02:33 Сверхспособности Скачать торрент  

    m4r2 писал(а):

    Капустин кстати петух.

    Лол что?pb.wtf



    01-04-2015 20:08 Сверхспособности Скачать торрент  

    И ещё бы указать нужно, что здесь присутствует не нормативная лексика!pb.wtf



    11-04-2015 16:52 Сверхспособности Скачать торрент  

    Лалка писал(а):

    m4r2 писал(а):

    Капустин кстати петух.

    Лол что?

    да на рекламу такую выкидывало, запарило)
    Трек в ендинге как называется?pb.wtf



      Дорогой пользователь! Огромная просьба, поблагодарите релизера, оцените раздачу и оставьте свои комментарий, если Вы скачали Сверхспособности через торрент бесплатно! Внесите свою лепту в развитие PiratBit!
      Комментировать посты могут только пользователи прошедшие не сложную регистрацию
      Показать сообщения:    

      Сверхспособности через торрент
      Скачать бесплатно Сверхспособности
      Сверхспособности скачать торрент
      Сверхспособности смотреть онлайн
      Cкачать фильм Сверхспособности бесплатно
      Сверхспособности скачать торрент в хорошем качестве
      Сверхспособности смотреть онлайн бесплатно в хорошем качестве


      Вы не можете начинать темы
      Вы не можете отвечать на сообщения
      Вы не можете редактировать свои сообщения
      Вы не можете удалять свои сообщения
      Вы не можете голосовать в опросах
      Вы не можете прикреплять файлы к сообщениям
      Вы можете скачивать файлы