Ссылка на приватное зеркало всего за 1$. Внимание количество ограничено!!!

iTunes

iTunes

iTunes

1

iTunes

iTunes

iTunes

iTunes

iTunes

30
pack

$ от Little Big

ВАЖНО

!!Акция!!

Alien_RageХит недели

RePack

Resident Evil 21

ИГРА 18+

pack

RePack

jed

!!Акция!!

Alien_Rage

RePack

fifa19

RePack

Assassins Creed: Odyssey

RePack

NEED FOR SPEED™ PAYBACK

4 сезон

9 сезон

Бесстыжие 9 сезон

Все сериалы

все сериалы на PB.wtf

RePack

FAR CRY 5
  

Судный день Дэна / Dannys dommedag (Мартин Барнвитц ) [2014, приключения, семейный, WEB-DL 1080p, Любительский (двухголосый) [den904, DeadSno] pb.wtf

Судный день Дэна через торрент pb.wtf

Размер: 2.79 GB | Добавлен: 5 лет 4 мес. назад | Торрент скачан:57 раз
Скачать  

13-03-2015 14:10 Судный день Дэна Скачать торрент  


Судный день Дэна / Dannys dommedag


ИНФОРМАЦИЯ:
Год выпуска:2014
Страна: Дания
Жанр: приключения, семейный
Продолжительность: 01:24:36
Перевод: Любительский (двухголосый) [den904, DeadSno]
Режиссер: Мартин Барнвитц

В Ролях:


Вилльям Йенк Нильсен (Danny), Thomas Garvey (William), Петер Ганцлер (Adam), Эмили Вернер Земмельрот (Rie), Марко Ильсё (Lukas), Расмус Линд Рубин (Thomas), Ida Emilie Just (Maja), Ларс Миккельсен (Father), Камилла Бендикс (Mother), Thomas L. Corneliussen (Biology teacher), Клаус Флюгаре (Skipper), Эллан Хайд (Fisker)

ОПИСАНИЕ:
Дэнни - обычный датский подросток, с обычными для всех подростков проблемами: притеснениями в школе, ссорами с братом, безответной романтической влюбленностью в одноклассницу. Но однажды все меняется, когда в период аномальной жары, в окрестностях появляются бешеные каннибалы, пожирающие все на своем пути. Но плохо ли это для Дэнни?

  • Мировая премьера:12 сентября 2014

    ТЕХ.ДАННЫЕ:
    Качество: WEB-DL 1080p
    Формат: MKV
    Видео кодек: AVC
    Аудио кодек: AC3
    Видео: AVC, 1912x794 (2.40:1), 4435 kbps, 25 fps, 0,117 bpp
    Аудио: AC3 / 2.0 / 48 kHz / 192 kbps / 16 bit



    Код:

    General
    Unique ID                                : 172949103976698935052433538835561632510 (0x821CC92B860719849CA7C3A376ACD2FE)
    Complete name                            : D:\Торенты\СудныйДеньДэна.mkv
    Format                                   : Matroska
    Format version                           : Version 4 / Version 2
    File size                                : 2.79 GiB
    Duration                                 : 1h 24mn
    Overall bit rate                         : 4 722 Kbps

    Encoded date                             : UTC 2015-03-12 22:24:47
    Writing application                      : mkvmerge v7.2.0 ('On Every Street') 64bit built on Sep 13 2014 15:52:10
    Writing library                          : libebml v1.3.0 + libmatroska v1.4.1
    DURATION                                 : 01:24:36.864000000
    NUMBER_OF_FRAMES                         : 158652
    NUMBER_OF_BYTES                          : 121844736
    _STATISTICS_WRITING_APP                  : mkvmerge v7.2.0 ('On Every Street') 64bit built on Sep 13 2014 15:52:10
    _STATISTICS_WRITING_DATE_UTC             : 2015-03-12 22:24:47
    _STATISTICS_TAGS                         : BPS DURATION NUMBER_OF_FRAMES NUMBER_OF_BYTES

    Video
    ID                                       : 1
    Format                                   : AVC
    Format/Info                              : Advanced Video Codec
    Format profile                           : High@L4.0
    Format settings, CABAC                   : Yes
    Format settings, ReFrames                : 5 frames
    Codec ID                                 : V_MPEG4/ISO/AVC
    Duration                                 : 1h 24mn
    Bit rate                                 : 4 436 Kbps
    Width                                    : 1 912 pixels
    Height                                   : 794 pixels
    Display aspect ratio                     : 2.40:1
    Frame rate                               : 25.000 fps
    Color space                              : YUV
    Chroma subsampling                       : 4:2:0
    Bit depth                                : 8 bits
    Scan type                                : Progressive
    Bits/(Pixel*Frame)                       : 0.117
    Stream size                              : 2.62 GiB (94%)
    Language                                 : English
    Default                                  : Yes
    Forced                                   : No
    Color primaries                          : BT.709-5, BT.1361, IEC 61966-2-4, SMPTE RP177
    Transfer characteristics                 : BT.709-5, BT.1361
    Matrix coefficients                      : BT.709-5, BT.1361, IEC 61966-2-4 709, SMPTE RP177

    Audio
    ID                                       : 2
    Format                                   : AC-3
    Format/Info                              : Audio Coding 3
    Mode extension                           : CM (complete main)
    Codec ID                                 : A_AC3
    Duration                                 : 1h 24mn
    Bit rate mode                            : Constant
    Bit rate                                 : 192 Kbps
    Channel(s)                               : 2 channels
    Channel positions                        : Front: L R
    Sampling rate                            : 48.0 KHz
    Bit depth                                : 16 bits
    Compression mode                         : Lossy
    Stream size                              : 116 MiB (4%)
    Default                                  : Yes
    Forced                                   : No

    Скриншоты:


    © Оформление by Ворон
    pb.wtf



  • Скачать Судный день Дэна через торрент http://pic.kartinco.top/images/6/ordi9.jpg Скачать фильм Судный день Дэна через торрент бесплантно в хорошем качестве Е:Дэнни - обычный датский подросток, с обычными для всех подростков проблемами: притеснениями в школе, ссорами с братом, безответной ... 10 10 5
    Торрент: Зарегистрирован [2015-03-13 14:10] · скачан: 57 раз
    Статус: T временная
    Размер: 2.79 GB
    Как cкачать? Как скачать Судный день Дэна через торрент | qTorrent

    % Раздел Тема Автор DL S | L
    T Фильмы 2014 (Звук TS, Cam, VO, DVO) [ 1.36 GB ] Судный день Дэна / Dannys dommedag [2014 WEB-DLRip Любительский [den904 DeadSno] Ворон Скачать
    1 | 0

    28-11-2019 20:33  

    Отключить всю рекламу на сайте

    13-03-2015 14:24 Судный день Дэна Скачать торрент  

    http://sendfile.su/1095650 сэмпл с бюджетного рипа)=pb.wtf



      Дорогой пользователь! Огромная просьба, поблагодарите релизера, оцените раздачу и оставьте свои комментарий, если Вы скачали Судный день Дэна через торрент бесплатно! Внесите свою лепту в развитие PiratBit!
      Комментировать посты могут только пользователи прошедшие не сложную регистрацию
      Показать сообщения:    

      Судный день Дэна через торрент
      Скачать бесплатно Судный день Дэна
      Судный день Дэна скачать торрент
      Судный день Дэна смотреть онлайн
      Cкачать фильм Судный день Дэна бесплатно
      Судный день Дэна скачать торрент в хорошем качестве
      Судный день Дэна смотреть онлайн бесплатно в хорошем качестве


      Вы не можете начинать темы
      Вы не можете отвечать на сообщения
      Вы не можете редактировать свои сообщения
      Вы не можете удалять свои сообщения
      Вы не можете голосовать в опросах
      Вы не можете прикреплять файлы к сообщениям
      Вы можете скачивать файлы