Death Stranding+DLC+АВТОАКТИВАЦИЯ

iTunes

iTunes

iTunes

1

iTunes

iTunes

iTunes

iTunes

iTunes

30
pack

$ от Little Big

ВАЖНО

!!Акция!!

Alien_RageХит недели

RePack

Resident Evil 21

ИГРА 18+

pack

RePack

jed

!!Акция!!

Alien_Rage

RePack

fifa19

RePack

Assassins Creed: Odyssey

RePack

NEED FOR SPEED™ PAYBACK

4 сезон

9 сезон

Бесстыжие 9 сезон

Все сериалы

все сериалы на PB.wtf

RePack

FAR CRY 5
  

Сматывайся отсюда к черту / Run Like Hell ( Джеймс Томас) [2014, Ужасы, боевик, триллер, WEB-DL 720p ] MVO pb.wtf

Сматывайся отсюда к черту через торрент pb.wtf

Размер: 2.68 GB | Добавлен: 5 лет 4 мес. назад | Торрент скачан:94 раза
Скачать  

27-12-2014 09:41 Сматывайся отсюда к черту Скачать торрент  

Информация о фильме

Название: Сматывайся отсюда к черту

Оригинальное название: Run Like Hell

Год выпуска: 2014

Выпущено: США

Продолжительность: 01:19:35

Озвучивание: Любительское (многоголосое) [Victory-Films (Камилла Юнусова, Елизавета Алейникова, Андрей Питерский), XDub (Elrid, Anzen), Антон Агапов aka datynet, den904 & DeadSno], перевод - [Куценко]

Субтитры: English

Жанр: Ужасы, боевик, триллер

Выпущено: США, Two Guys and a Film

Режиссер: Джеймс Томас

В ролях: Дэвид Себастьян Финн, Райан Принц, Робин Бак, Тамара Кэри, Дж Майкл Бриггс, Джессика Камерон, Кертис Бедфорд, Бен Бегли

Описание: Четверо друзей останавливаются в маленьком городке,где принимают помощь местной семьи. Но реальные мотивы оказываются, куда страшнее благородного порыва.

Файл

Качество: WEB-DL 720p
Формат: MKV
Видео кодек: AVC
Аудио кодек: AC3
Видео: 3950 kb/s, 1280x546, 23,976 fps
Аудио: Russian : AC3, 384 kb/s (6 ch) , 48 kHz
Аудио: English: AC3, 384 kb/s (6 ch) , 48 kHz
https://yadi.sk/i/v-k9P5r-deHJf
General
Run.Like.Hell.2014.WEB-DL.720p.CINEMANIA.mkv
Format : Matroska
Format version : Version 4 / Version 2
File size : 2.71 GiB
Duration : 1h 19mn
Overall bit rate : 4 878 Kbps
Movie name : Release Group CINEMANIA
Encoded date : UTC 2014-12-26 19:48:27
Writing application : mkvmerge v7.4.0 ('Circles') 64bit built on Dec 12 2014 12:19:56
Writing library : libebml v1.3.0 + libmatroska v1.4.1

Video
ID : 1
Format : AVC
Format/Info : Advanced Video Codec
Format profile : High@L3.1
Format settings, CABAC : No
Format settings, ReFrames : 2 frames
Codec ID : V_MPEG4/ISO/AVC
Duration : 1h 19mn
Bit rate : 3 949 Kbps
Width : 1 280 pixels
Height : 546 pixels
Display aspect ratio : 2.35:1
Frame rate mode : Constant
Frame rate : 23.976 fps
Color space : YUV
Chroma subsampling : 4:2:0
Bit depth : 8 bits
Scan type : Progressive
Bits/(Pixel*Frame) : 0.236
Stream size : 2.20 GiB (81%)
Title : Release Group CINEMANIA
Language : English
Default : Yes
Forced : No
Color primaries : BT.709
Transfer characteristics : BT.709
Matrix coefficients : BT.709

Audio #1
ID : 2
Format : AC-3
Format/Info : Audio Coding 3
Mode extension : CM (complete main)
Format settings, Endianness : Big
Codec ID : A_AC3
Duration : 1h 19mn
Bit rate mode : Constant
Bit rate : 384 Kbps
Channel(s) : 6 channels
Channel positions : Front: L C R, Side: L R, LFE
Sampling rate : 48.0 KHz
Bit depth : 16 bits
Compression mode : Lossy
Stream size : 255 MiB (9%)
Title : КолобкЭйшн
Language : Russian
Default : Yes
Forced : Yes

Audio #2
ID : 3
Format : AC-3
Format/Info : Audio Coding 3
Mode extension : CM (complete main)
Format settings, Endianness : Big
Codec ID : A_AC3
Duration : 1h 19mn
Bit rate mode : Constant
Bit rate : 384 Kbps
Channel(s) : 6 channels
Channel positions : Front: L C R, Side: L R, LFE
Sampling rate : 48.0 KHz
Bit depth : 16 bits
Compression mode : Lossy
Stream size : 219 MiB (8%)
Language : English
Default : No
Forced : No

Text #1
ID : 5
Format : UTF-8
Codec ID : S_TEXT/UTF8
Codec ID/Info : UTF-8 Plain Text
Language : English
Default : No
Forced : No

Menu
00:00:00.000 : en:Chapter 1
00:12:30.000 : en:Chapter 2
00:19:18.000 : en:Chapter 3
00:30:18.000 : en:Chapter 4
00:47:37.000 : en:Chapter 5
00:56:42.000 : en:Chapter 6
01:08:53.000 : en:Chapter 7
01:16:05.000 : en:Chapter 8
pb.wtf



Скачать Сматывайся отсюда к черту через торрент http://i64.fastpic.ru/big/2014/1111/c2/70a82d327de1ebdfdb2cd0a07caca6c2.jpg Скачать фильм Сматывайся отсюда к черту через торрент бесплантно в хорошем качестве Описание: Четверо друзей останавливаются в маленьком городке,где принимают помощь местной семьи. Но реальные мотивы оказываются, куда ... 7.3 10 12
Торрент: Зарегистрирован [2015-03-13 18:39] · скачан: 94 раз
Статус: √ проверено
Размер: 2.68 GB
Как cкачать? Как скачать Сматывайся отсюда к черту через торрент | qTorrent

% Раздел Тема Автор DL S | L
T Фильмы 2014 [DVDrip, WEB-DLRip, HDrip] [ 1.37 GB ] Сматывайся отсюда к черту / Run Like Hell [2014 WEB-DLRip] MVO Ворон Скачать
1 | 0

28-11-2019 20:33  

Отключить всю рекламу на сайте

27-12-2014 11:08 Сматывайся отсюда к черту Скачать торрент  

Как фильм?pb.wtf



27-12-2014 17:25 Сматывайся отсюда к черту Скачать торрент  

Фихня какаетоpb.wtf



13-03-2015 19:18 Сматывайся отсюда к черту Скачать торрент  

Гавнищеpb.wtf



    Дорогой пользователь! Огромная просьба, поблагодарите релизера, оцените раздачу и оставьте свои комментарий, если Вы скачали Сматывайся отсюда к черту через торрент бесплатно! Внесите свою лепту в развитие PiratBit!
    Комментировать посты могут только пользователи прошедшие не сложную регистрацию
    Показать сообщения:    

    Сматывайся отсюда к черту через торрент
    Скачать бесплатно Сматывайся отсюда к черту
    Сматывайся отсюда к черту скачать торрент
    Сматывайся отсюда к черту смотреть онлайн
    Cкачать фильм Сматывайся отсюда к черту бесплатно
    Сматывайся отсюда к черту скачать торрент в хорошем качестве
    Сматывайся отсюда к черту смотреть онлайн бесплатно в хорошем качестве


    Вы не можете начинать темы
    Вы не можете отвечать на сообщения
    Вы не можете редактировать свои сообщения
    Вы не можете удалять свои сообщения
    Вы не можете голосовать в опросах
    Вы не можете прикреплять файлы к сообщениям
    Вы можете скачивать файлы