Ссылка на приватное зеркало нашего сайта всего за 1$. Внимание количество ограничено!!!

2 сезон

iTunes

1 сезон

1

iTunes

iTunes

iTunes

1 сезон

RePack

30

ИГРА 18+

pack

ВАЖНО

!!Акция!!

Alien_RageХит недели

RePack

MK11
pack

Забери бонус

RePack

jed

!!Акция!!

Alien_Rage

RePack

fifa19

RePack

Assassins Creed: Odyssey

RePack

NEED FOR SPEED™ PAYBACK

4 сезон

9 сезон

Бесстыжие 9 сезон

Все сериалы

все сериалы на PB.wtf

RePack

FAR CRY 5
  

Чёрное море / Black Sea (Кевин МакДональд ) [2014, триллер, приключения, BDRip 1080p, MVO [Лицензия] pb.wtf

Чёрное море через торрент pb.wtf

Размер: 8.71 GB | Добавлен: 5 лет 7 мес. назад | Торрент скачан:709 раз
Скачать  

13-03-2015 19:51 Чёрное море Скачать торрент  


Чёрное море / Black Sea


ИНФОРМАЦИЯ:
Год выпуска:2014
Страна: Великобритания, США, Россия
Жанр: триллер, приключения
Продолжительность: 01:49:44
Перевод: Профессиональный многоголосый [Лицензия]
Режиссер: Кевин МакДональд

В Ролях:


Джуд Лоу (Captain Robinson), Скут МакНэри (Daniels), Бен Мендельсон (Fraser), Джоди Уиттакер (Chrissy), Тобайас Мензис (Lewis), Григорий Добрыгин (Morozov), Паулина Бонева (Job Center Worker), Джун Смит (Woman in black in bar), Дэвид Трелфолл, Майкл Смайли (Reynolds), Карл Дейвис (Liam), Константин Хабенский (Blackie)

ОПИСАНИЕ:
К уволенному капитану подводной лодки обращается таинственный наниматель с предложением возглавить экспедицию по поиску затонувшей у берегов Чёрного моря субмарины, предположительно загруженной золотом. Желая подзаработать на этом деле и отомстить бывшему работодателю, капитан собирает команду из русских и английских моряков и отправляется в плавание, но вскоре понимает, в какое рискованное предприятие ввязался.

  • Мировая премьера:5 декабря 2014

    ТЕХ.ДАННЫЕ:
    Качество: BDRip 1080p
    Формат: MKV
    Видео кодек: AVC
    Аудио кодек: AC3, DTS
    Видео: AVC, 1920x800 (2.40:1), 8653 kbps, 25 fps, 0,225 bpp
    Аудио №1: русский / DTS / 5.1 / 48 kHz / 755 kbps / 24 bit ||
    Аудио №2: русский / AC3 / 5.1 / 48 kHz / 448 kbps / 16 bit ||
    Аудио №3: английский / DTS / 5.1 / 48 kHz / 1510 kbps / 24 bit



    Код:

    General
    Unique ID                                : 203767787874990026761900857024339608997 (0x994C3F999131A7E0BD4BD98373B185A5)
    Complete name                            : D:\Торенты\Кино\Chernoe.More.2014.P.BDRip.1080p.mkv
    Format                                   : Matroska
    Format version                           : Version 4 / Version 2
    File size                                : 8.71 GiB
    Duration                                 : 1h 49mn
    Overall bit rate                         : 11.4 Mbps
    Movie name                               : Chernoe.More.2014.P.BDRip.1080p.
    Encoded date                             : UTC 2015-03-12 08:30:00
    Writing application                      : mkvmerge v7.7.0 ('Six Voices') 32bit built on Feb 28 2015 23:23:00
    Writing library                          : libebml v1.3.1 + libmatroska v1.4.2

    Video
    ID                                       : 1
    Format                                   : AVC
    Format/Info                              : Advanced Video Codec
    Format profile                           : High@L4.1
    Format settings, CABAC                   : Yes
    Format settings, ReFrames                : 4 frames
    Codec ID                                 : V_MPEG4/ISO/AVC
    Duration                                 : 1h 49mn
    Bit rate                                 : 8 653 Kbps
    Width                                    : 1 920 pixels
    Height                                   : 800 pixels
    Display aspect ratio                     : 2.40:1
    Frame rate                               : 25.000 fps
    Color space                              : YUV
    Chroma subsampling                       : 4:2:0
    Bit depth                                : 8 bits
    Scan type                                : Progressive
    Bits/(Pixel*Frame)                       : 0.225
    Stream size                              : 6.46 GiB (74%)
    Title                                    : Chernoe.More.2014.P.BDRip.1080p.ELEKTRI4KA.uniongang.tv [3imeMachi9e]
    Writing library                          : x264 core 119 r2106 07efeb4
    Encoding settings                        : cabac=1 / ref=3 / deblock=1:-3:-3 / analyse=0x3:0x133 / me=umh / subme=10 / psy=1 / psy_rd=1.00:0.10 / mixed_ref=1 / me_range=22 / chroma_me=1 / trellis=2 / 8x8dct=1 / cqm=0 / deadzone=21,11 / fast_pskip=0 / chroma_qp_offset=-3 / threads=12 / sliced_threads=0 / nr=0 / decimate=1 / interlaced=0 / bluray_compat=0 / constrained_intra=0 / bframes=3 / b_pyramid=2 / b_adapt=2 / b_bias=0 / direct=3 / weightb=1 / open_gop=0 / weightp=2 / keyint=250 / keyint_min=25 / scenecut=40 / intra_refresh=0 / rc_lookahead=60 / rc=2pass / mbtree=1 / bitrate=8653 / ratetol=1.0 / qcomp=0.60 / qpmin=0 / qpmax=69 / qpstep=4 / cplxblur=20.0 / qblur=0.5 / ip_ratio=1.40 / aq=1:1.00
    Language                                 : Russian
    Default                                  : Yes
    Forced                                   : No

    Audio #1
    ID                                       : 2
    Format                                   : DTS
    Format/Info                              : Digital Theater Systems
    Codec ID                                 : A_DTS
    Duration                                 : 1h 49mn
    Bit rate mode                            : Constant
    Bit rate                                 : 755 Kbps
    Channel(s)                               : 6 channels
    Channel positions                        : Front: L C R, Side: L R, LFE
    Sampling rate                            : 48.0 KHz
    Bit depth                                : 24 bits
    Compression mode                         : Lossy
    Stream size                              : 592 MiB (7%)
    Title                                    : Chernoe.More.2014.P.BDRip.1080p.ELEKTRI4KA.uniongang.tv [3imeMachi9e]
    Language                                 : Russian
    Default                                  : Yes
    Forced                                   : No

    Audio #2
    ID                                       : 3
    Format                                   : AC-3
    Format/Info                              : Audio Coding 3
    Mode extension                           : CM (complete main)
    Codec ID                                 : A_AC3
    Duration                                 : 1h 49mn
    Bit rate mode                            : Constant
    Bit rate                                 : 448 Kbps
    Channel(s)                               : 6 channels
    Channel positions                        : Front: L C R, Side: L R, LFE
    Sampling rate                            : 48.0 KHz
    Bit depth                                : 16 bits
    Compression mode                         : Lossy
    Stream size                              : 352 MiB (4%)
    Title                                    : Chernoe.More.2014.P.BDRip.1080p.ELEKTRI4KA.uniongang.tv [3imeMachi9e]
    Language                                 : Russian
    Default                                  : No
    Forced                                   : No

    Audio #3
    ID                                       : 4
    Format                                   : DTS
    Format/Info                              : Digital Theater Systems
    Codec ID                                 : A_DTS
    Duration                                 : 1h 49mn
    Bit rate mode                            : Constant
    Bit rate                                 : 1 510 Kbps
    Channel(s)                               : 6 channels
    Channel positions                        : Front: L C R, Side: L R, LFE
    Sampling rate                            : 48.0 KHz
    Bit depth                                : 24 bits
    Compression mode                         : Lossy
    Stream size                              : 1.16 GiB (13%)
    Title                                    : Original - Chernoe.More.2014.P.BDRip.1080p.ELEKTRI4KA.uniongang.tv [3imeMachi9e]
    Language                                 : English
    Default                                  : No
    Forced                                   : No

    Скриншоты:


    © Оформление by Ворон
    pb.wtf



  • Скачать Чёрное море через торрент http://pic.kartinco.top/images/6/ordi9.jpg Скачать фильм Чёрное море через торрент бесплантно в хорошем качестве Е:К уволенному капитану подводной лодки обращается таинственный наниматель с предложением возглавить экспедицию по поиску затонувшей у ... 9.1 10 19
    Info! Золотая раздача, скачанное не засчитывается.
    Торрент: Зарегистрирован [2015-03-13 19:51] · скачан: 709 раз
    Статус: √ проверено
    Размер: 8.71 GB
    Как cкачать? Как скачать Чёрное море через торрент | qTorrent

    % Раздел Тема Автор DL S | L
    Фильмы 2014 [DVDrip, WEB-DLRip, HDrip] [ 1.46 GB ] Чёрное море / Black Sea [2014 BDRip-AVC ] MVO _denis_100 Скачать
    1 | 0
    Фильмы 2014 [DVDrip, WEB-DLRip, HDrip] [ 2.18 GB ] Чёрное море / Black Sea [2014 BDRip-AVC] MVO potroks Скачать
    1 | 0
    Фильмы 2014 [DVDrip, WEB-DLRip, HDrip] [ 2.18 GB ] Чёрное море / Black Sea [2014 HDRip многоголосый ""] coc900 Скачать
    1 | 0
    Фильмы 2014 [DVDrip, WEB-DLRip, HDrip] [ 1.46 GB ] Чёрное море / Black Sea [2014 HDRip многоголосый [] Ворон Скачать
    1 | 0
    Фильмы 2014 [DVDrip, WEB-DLRip, HDrip] [ 2.06 GB ] Чёрное море / Black Sea [2014 HDRip многоголосый [] Ворон Скачать
    1 | 0
    National Geographic [ 328 MB ] National Geographic: Призраки Черного Моря / Ghosts Of The Black Sea [2007 Документальный SATRip] 220v0lt Скачать
    1 | 0

    28-11-2019 20:33  

    Отключить всю рекламу на сайте

    15-03-2015 11:31 Чёрное море Скачать торрент  

    Мда,русские подводники даже летом в подводной лодке,ходят в зимней шапке,да ещё и с опущеными ушами sarcastic
    На редкость бездарный,в техническом плане фильмpb.wtf



    04-04-2015 21:13 Чёрное море Скачать торрент  

    очередной тупой американский высер, русских убивают как мух с самого начала, пафос пендосов зашкаливает, фильм ни о чем...pb.wtf



    06-10-2015 10:05 Чёрное море Скачать торрент  

    фильм - говно. ни сюжета, ни актёрской игры. фтопку!pb.wtf



      Дорогой пользователь! Огромная просьба, поблагодарите релизера, оцените раздачу и оставьте свои комментарий, если Вы скачали Чёрное море через торрент бесплатно! Внесите свою лепту в развитие PiratBit!
      Комментировать посты могут только пользователи прошедшие не сложную регистрацию
      Показать сообщения:    

      Чёрное море через торрент
      Скачать бесплатно Чёрное море
      Чёрное море скачать торрент
      Чёрное море смотреть онлайн
      Cкачать фильм Чёрное море бесплатно
      Чёрное море скачать торрент в хорошем качестве
      Чёрное море смотреть онлайн бесплатно в хорошем качестве


      Вы не можете начинать темы
      Вы не можете отвечать на сообщения
      Вы не можете редактировать свои сообщения
      Вы не можете удалять свои сообщения
      Вы не можете голосовать в опросах
      Вы не можете прикреплять файлы к сообщениям
      Вы можете скачивать файлы