Ссылка на приватное зеркало нашего сайта всего за 1$. Внимание количество ограничено!!!

2 сезон

iTunes

1 сезон

1

iTunes

iTunes

iTunes

1 сезон

RePack

30

ИГРА 18+

pack

ВАЖНО

!!Акция!!

Alien_RageХит недели

RePack

MK11
pack

Забери бонус

RePack

jed

!!Акция!!

Alien_Rage

RePack

fifa19

RePack

Assassins Creed: Odyssey

RePack

NEED FOR SPEED™ PAYBACK

4 сезон

9 сезон

Бесстыжие 9 сезон

Все сериалы

все сериалы на PB.wtf

RePack

FAR CRY 5
  

Кабельное / 1 Сезон: / 1 Серия (пилотная) (Илья Куликов) [2015 г., Комедия, WEB-DLRip-AVC] pb.wtf

Кабельное через торрент pb.wtf

Размер: 118 MB | Добавлен: 5 лет 7 мес. назад | Торрент скачан:243 раза
Скачать  

14-03-2015 07:28 Кабельное Скачать торрент  

Кабельное
Год выпуска: 2015
Страна: Россия
Жанр: Комедия
Продолжительность: 22:38

Режиссер: Илья Куликов
Продюссер: Андрей Семенов
Сценарий: Илья Куликов
Описание:
Пилот сериала "Кабельное" с участием Виктории Тарасовой. Автор сценария и режиссер - Илья Куликов. "Кабельное" - жесткая сатира на наше телевидение.

Качество: WEB-DLRip-AVC
Формат: AVI
Видео кодек: AVC
Аудио кодек: AAC LC
Видео: AVC, 854x480 (16:9), 25.000 fps, 595 Kbps (0.058 bit/pixel)
Аудио: AAC LC, 44.1 KHz, 2 ch, 126 Kbps, CBR

Общее
Полное имя : D:\Торенты\Сериал Кабельное 2014 Серия 1 (16+).mp4
Формат : MPEG-4
Профиль формата : Base Media
Идентификатор кодека : isom
Размер файла : 118 Мбайт
Продолжительность : 22 м.
Общий поток : 727 Кбит/сек
Программа кодирования : Lavf55.22.100

Видео
Идентификатор : 1
Формат : AVC
Формат/Информация : Advanced Video Codec
Профиль формата : Main@L3.0
Параметр CABAC формата : Да
Параметр ReFrames формата : 3 кадра
Идентификатор кодека : avc1
Идентификатор кодека/Информация : Advanced Video Coding
Продолжительность : 22 м.
Битрейт : 595 Кбит/сек
Ширина : 854 пикселя
Высота : 480 пикселей
Соотношение сторон : 16:9
Режим частоты кадров : Постоянный
Частота кадров : 25,000 кадров/сек
Цветовое пространство : YUV
Субдискретизация насыщенности : 4:2:0
Битовая глубина : 8 бит
Тип развёртки : Прогрессивная
Бит/(Пиксели*Кадры) : 0.058
Размер потока : 96,3 Мбайт (82%)

Аудио
Идентификатор : 2
Формат : AAC
Формат/Информация : Advanced Audio Codec
Профиль формата : LC
Идентификатор кодека : 40
Продолжительность : 22 м.
Вид битрейта : Постоянный
Битрейт : 126 Кбит/сек
Каналы : 2 канала
Расположение каналов : Front: L R
Частота : 44,1 КГц
Метод сжатия : С потерями
Размер потока : 20,3 Мбайт (17%)
pb.wtf



Скачать Кабельное через торрент http://pic1.kartinco.top/images/10/u53fz.jpg Скачать фильм Кабельное через торрент бесплантно в хорошем качестве Описание: Пилот сериала "Кабельное" с участием Виктории Тарасовой. Автор сценария и режиссер - Илья Куликов. "Кабельное" - жесткая сатира ... 7.3 10 16
Торрент: Зарегистрирован [2015-03-14 07:28] · скачан: 243 раз
Статус: √ проверено
Размер: 118 MB
Как cкачать? Как скачать Кабельное через торрент | qTorrent

28-11-2019 20:33  

Отключить всю рекламу на сайте

14-03-2015 09:31 Кабельное Скачать торрент  

че это такое где описание где кто? pb.wtf



14-03-2015 09:44 Кабельное Скачать торрент  

Описания особо нет! Но сериал походу будет прикольный))) Пока только 1 серия, ну а там уже посмотрим!pb.wtf



14-03-2015 12:28 Кабельное Скачать торрент  

Сюжет и скрины плиз,ничего не понятно,качать иль нетpb.wtf



14-03-2015 15:32 Кабельное Скачать торрент  

Качай)))pb.wtf



16-03-2015 00:50 Кабельное Скачать торрент  

Chirkin, http://pb.wtf/topic/128136/ ознакомитесь.
В плане оформления все было ужасно..так как это Ваша первая раздача, все сделал за вас. Пусть будем как пример на будущие релизы.pb.wtf



    Дорогой пользователь! Огромная просьба, поблагодарите релизера, оцените раздачу и оставьте свои комментарий, если Вы скачали Кабельное через торрент бесплатно! Внесите свою лепту в развитие PiratBit!
    Комментировать посты могут только пользователи прошедшие не сложную регистрацию
    Показать сообщения:    

    Кабельное через торрент
    Скачать бесплатно Кабельное
    Кабельное скачать торрент
    Кабельное смотреть онлайн
    Cкачать фильм Кабельное бесплатно
    Кабельное скачать торрент в хорошем качестве
    Кабельное смотреть онлайн бесплатно в хорошем качестве


    Вы не можете начинать темы
    Вы не можете отвечать на сообщения
    Вы не можете редактировать свои сообщения
    Вы не можете удалять свои сообщения
    Вы не можете голосовать в опросах
    Вы не можете прикреплять файлы к сообщениям
    Вы можете скачивать файлы