Мега распродажа FORZA HORIZON 4 ULTIMATE+ВСЕ DLC+ОНЛАЙН всего за 499р. 349 руб. (супер цена). Внимание количество ограничено!!!

iTunes

1+1

iTunes

мы

iTunes

1

1 сезон

Чернобыль

1 сезон

Ральф против интернета

Лицензия

ПШазам

8 сезон

Игра престолов

Лицензия

30
pack

ВАЖНО

!!Акция!!

Alien_RageХит недели

RePack

Resident Evil 21

ИГРА 18+

pack

RePack

Metro:Exodus

!!Акция!!

Alien_Rage

RePack

fifa19

RePack

Assassins Creed: Odyssey

RePack

NEED FOR SPEED™ PAYBACK

3 сезон

9 сезон

Бесстыжие 9 сезон

Все сериалы

все сериалы на PB.wtf

RePack

FAR CRY 5
Ребята, катастрофически не хватает 2730р. для оплаты серверов за ИЮНЬ (всвязи с блокировками трафик упал в 3 раза), 1-2р., выручайте.
  

Поклонница / Der Fan (Экхарт Шмидт) [1982, ужасы, BDRip-AVC] VO pb.wtf

Поклонница через торрент pb.wtf

Размер: 2.22 GB | Добавлен: 4 года 4 мес. назад | Торрент скачан:33 раза
Скачать  

14-03-2015 08:02 Поклонница Скачать торрент  

Поклонница / Der Fan

Год выпуска: 1982
Страна: ФРГ
Жанр: ужасы
Продолжительность: 01:33:18
Перевод: любительский одноголосый
Субтитры: русские, немецкие

Режиссёр: Экхарт Шмидт

В ролях: Дезире Носбуш, Бодо Стайгер, Simone Brahmann, Йонас Вишер, Helga Tölle, Клаус Мюнстер, Ian Moorse, Вильфрид Бласберг, Sabine Kueckelmann, Клаудия Шуманн

Описание: 17-летняя Симона влюбляется в рок-певца. Пишет ему письма, понятно, без ответа. Из-за этого злится, хамит учителям и родителям, даже нападает на почтальона, полагая, что тот скрывает от неё письма. В конце концов набирается смелости и едет к своему любимому в Мюнхен. Там таких фанаток длиннющая очередь, но наша героиня - девушка очень даже красивая, и рок-звезда благосклонно останавливает на ней взгляд… Но он зло подсмеивается над её искренними чувствами - ведь для него она лишь одна из фанаток, каких у него множество. Месть девушки ужасна и беспощадна…



Качество: BDRip-AVC Сравнение с исходником
Формат: MKV
Видео кодек: H.264
Аудио кодек: AC3
Видео: 2764 Kбит/с, 1024х552, 23.976 кадра/с, 0.204 bpp
Аудио 1: русский, AC3, 192 kbps, 2 ch, 48 kHz [любительский одноголосый, Den904]
Аудио 2: немецкий, AC3, 384 kbps, 2 ch, 48 kHz [оригинал]

Имеются неименованные главы/чаптеры.
frame I:716 Avg QP:17.34 size: 59907
frame P:24068 Avg QP:18.46 size: 28768
frame B:109448 Avg QP:20.31 size: 11377

Общее
Уникальный идентификатор : 236563522098661671738125093402286048050 (0xB1F87A22F5D8A91CBF50C99A77A94332)
Полное имя : D:VideoPoklonnica.1982.BDRip.AVC.mkv
Формат : Matroska
Версия формата : Version 4 / Version 2
Размер файла : 2,22 Гбайт
Продолжительность : 1 ч. 33 м.
Общий поток : 3408 Кбит/сек
Дата кодирования : UTC 2015-03-14 03:52:10
Программа кодирования : mkvmerge v7.7.0 ('Six Voices') 64bit built on Feb 28 2015 23:39:33
Библиотека кодирования : libebml v1.3.1 + libmatroska v1.4.2
_STATISTICS_WRITING_APP : mkvmerge v7.7.0 ('Six Voices') 64bit built on Feb 28 2015 23:39:33
_STATISTICS_WRITING_DATE_UTC : 2015-03-14 03:52:10
_STATISTICS_TAGS : BPS DURATION NUMBER_OF_FRAMES NUMBER_OF_BYTES
DURATION : 01:29:37.579000000
NUMBER_OF_FRAMES : 336
NUMBER_OF_BYTES : 15710

Видео
Идентификатор : 1
Формат : AVC
Формат/Информация : Advanced Video Codec
Профиль формата : High@L4.1
Параметр CABAC формата : Да
Параметр ReFrames формата : 9 кадров
Идентификатор кодека : V_MPEG4/ISO/AVC
Продолжительность : 1 ч. 33 м.
Битрейт : 2764 Кбит/сек
Ширина : 1024 пикселя
Высота : 552 пикселя
Соотношение сторон : 1,85:1
Режим частоты кадров : Постоянный
Частота кадров : 23,976 кадра/сек
Цветовое пространство : YUV
Субдискретизация насыщенности : 4:2:0
Битовая глубина : 8 бит
Тип развёртки : Прогрессивная
Бит/(Пиксели*Кадры) : 0.204
Размер потока : 1,80 Гбайт (81%)
Заголовок : BDRip -- STarankov
Библиотека кодирования : x264 core 142 r2431 ac76440
Настройки программы : cabac=1 / ref=9 / deblock=1:-2:-2 / analyse=0x3:0x113 / me=umh / subme=10 / psy=1 / psy_rd=1.00:0.15 / mixed_ref=1 / me_range=32 / chroma_me=1 / trellis=2 / 8x8dct=1 / cqm=0 / deadzone=21,11 / fast_pskip=1 / chroma_qp_offset=-3 / threads=6 / lookahead_threads=1 / sliced_threads=0 / nr=0 / decimate=1 / interlaced=0 / bluray_compat=0 / constrained_intra=0 / bframes=8 / b_pyramid=2 / b_adapt=2 / b_bias=0 / direct=3 / weightb=1 / open_gop=0 / weightp=2 / keyint=230 / keyint_min=23 / scenecut=40 / intra_refresh=0 / rc_lookahead=40 / rc=crf / mbtree=0 / crf=19.7 / qcomp=0.60 / qpmin=0 / qpmax=69 / qpstep=4 / vbv_maxrate=40000 / vbv_bufsize=50000 / crf_max=0.0 / nal_hrd=none / filler=0 / ip_ratio=1.40 / pb_ratio=1.30 / aq=1:1.00
Язык : German
Default : Да
Forced : Нет
DURATION : 01:33:18.593000000
NUMBER_OF_FRAMES : 134232
NUMBER_OF_BYTES : 1980480292
_STATISTICS_WRITING_APP : mkvmerge v7.7.0 ('Six Voices') 64bit built on Feb 28 2015 23:39:33
_STATISTICS_WRITING_DATE_UTC : 2015-03-14 03:52:10
_STATISTICS_TAGS : BPS DURATION NUMBER_OF_FRAMES NUMBER_OF_BYTES

Аудио #1
Идентификатор : 2
Формат : AC-3
Формат/Информация : Audio Coding 3
Расширение режима : CM (complete main)
Параметр Endianness формата : Big
Идентификатор кодека : A_AC3
Продолжительность : 1 ч. 33 м.
Вид битрейта : Постоянный
Битрейт : 192 Кбит/сек
Каналы : 2 канала
Расположение каналов : Front: L R
Частота : 48,0 КГц
Битовая глубина : 16 бит
Метод сжатия : С потерями
Размер потока : 128 Мбайт (6%)
Заголовок : VO (Den904, одноголосый закадровый)
Язык : Russian
Default : Да
Forced : Нет

Аудио #2
Идентификатор : 3
Формат : AC-3
Формат/Информация : Audio Coding 3
Расширение режима : CM (complete main)
Параметр Endianness формата : Big
Идентификатор кодека : A_AC3
Продолжительность : 1 ч. 33 м.
Вид битрейта : Постоянный
Битрейт : 384 Кбит/сек
Каналы : 2 канала
Расположение каналов : Front: L R
Частота : 48,0 КГц
Битовая глубина : 16 бит
Метод сжатия : С потерями
Размер потока : 256 Мбайт (11%)
Заголовок : Original
Язык : German
Default : Нет
Forced : Нет

Текст #1
Идентификатор : 4
Формат : UTF-8
Идентификатор кодека : S_TEXT/UTF8
Идентификатор кодека/Информация : UTF-8 Plain Text
Заголовок : русские
Язык : Russian
Default : Нет
Forced : Нет

Текст #2
Идентификатор : 5
Формат : UTF-8
Идентификатор кодека : S_TEXT/UTF8
Идентификатор кодека/Информация : UTF-8 Plain Text
Заголовок : немецкие
Язык : German
Default : Нет
Forced : Нет

Меню
00:00:00.000 : en:00:00:00.000
00:14:33.748 : en:00:14:33.748
00:23:24.653 : en:00:23:24.653
00:33:18.038 : en:00:33:18.038
00:43:40.535 : en:00:43:40.535
00:54:30.184 : en:00:54:30.184
01:07:19.285 : en:01:07:19.285
01:25:41.595 : en:01:25:41.595
pb.wtf



Скачать Поклонница через торрент http://i57.fastpic.ru/big/2015/0313/60/78ba10b3cb99cd3b7f71fe69251a0160.jpg Скачать фильм Поклонница через торрент бесплантно в хорошем качестве Описание: 17-летняя Симона влюбляется в рок-певца. Пишет ему письма, понятно, без ответа. Из-за этого злится, хамит учителям и родителям, ... 8.5 10 6
Торрент: Зарегистрирован [2015-03-14 08:02] · скачан: 33 раз
Статус: √ проверено
Размер: 2.22 GB
Как cкачать? Как скачать Поклонница через торрент | qTorrent

% Раздел Тема Автор DL S | L
Фильмы [HD 720p, 1080p] (Звук Cam, VO, DVO) [ 3.7 GB ] Поклонница / Der Fan [1982 BDRip 720p] VO msltel Скачать
1 | 0


>> Регистрируемся здесь <<






Отзывы и комментарии о схеме читаем и пишем здесь: ---> Отзывы и комментарии о схеме

Новые благодарочки в телеграм довольных пользователей:
скриншот   скриншот   скриншот   скриншот   скриншот

14-03-2015 12:41 Поклонница Скачать торрент  

Не впечатлило... Актёры - никакие, сюжета - ноль без палочки, а фильмов про каннибализм за последние 10 лет до чёрта снято. Раздающему - спасибо за труды, фильм в топку.pb.wtf



14-03-2015 13:01 Поклонница Скачать торрент  

Нормуль фильм!Под водку сойдет!pb.wtf



    Дорогой пользователь! Огромная просьба, поблагодарите релизера, оцените раздачу и оставьте свои комментарий, если Вы скачали Поклонница через торрент бесплатно! Внесите свою лепту в развитие PiratBit!
    Комментировать посты могут только пользователи прошедшие не сложную регистрацию
    Показать сообщения:    

    Поклонница через торрент
    Скачать бесплатно Поклонница
    Поклонница скачать торрент
    Поклонница смотреть онлайн
    Cкачать фильм Поклонница бесплатно
    Поклонница скачать торрент в хорошем качестве
    Поклонница смотреть онлайн бесплатно в хорошем качестве


    Вы не можете начинать темы
    Вы не можете отвечать на сообщения
    Вы не можете редактировать свои сообщения
    Вы не можете удалять свои сообщения
    Вы не можете голосовать в опросах
    Вы не можете прикреплять файлы к сообщениям
    Вы можете скачивать файлы