2 сезон

iTunes

1 сезон

1

iTunes

iTunes

iTunes

1 сезон

RePack

30

ИГРА 18+

pack

ВАЖНО

!!Акция!!

Alien_RageХит недели

RePack

MK11
pack

Забери бонус

RePack

jed

!!Акция!!

Alien_Rage

RePack

fifa19

RePack

Assassins Creed: Odyssey

RePack

NEED FOR SPEED™ PAYBACK

4 сезон

9 сезон

Бесстыжие 9 сезон

Все сериалы

все сериалы на PB.wtf

RePack

FAR CRY 5
  

Бёртон и Тейлор / Burton and Taylor (Ричард Лэкстон) [2013, драма, BDRip 720p] 2 x MVO pb.wtf

Бёртон и Тейлор через торрент pb.wtf

Размер: 2.06 GB | Добавлен: 5 лет 7 мес. назад | Торрент скачан:23 раза
Скачать  

14-03-2015 09:19 Бёртон и Тейлор Скачать торрент  

Бёртон и Тейлор / Burton and Taylor

Год выпуска: 2013
Страна: Великобритания
Жанр: драма
Продолжительность: 01:26:03
Перевод: профессиональный многоголосый
Субтитры: английские (для слабослышащих)

Режиссёр: Ричард Лэкстон

В ролях: Доминик Уэст, Хелена Бонем Картер, Грег Хикс, Джефф Мэш, Тревор Уайт, Ленора Кричлоу, Изабелла Брейзиер-Джонс, Люсиль Шарп, Стэнли Таунсенд, Сара Хэдлэнд

Описание: После второго развода Ричард Бёртон и Элизабет Тейлор снова встречаются в 1983 году для новой постановки пьесы "Интимная комедия", которая повторяет их собственную историю: состоящие в новых браках, но по-прежнему страстно влюблённые друг в друга, бывшие муж и жена Эллиот и Аманда снова сходятся вместе, погрязая в скандалах. Публика гадает, воссоединится ли звёздная пара Лиз и Дик в третий раз?...



Качество: BDRip 720p Сравнение с исходником
Формат: MKV
Видео кодек: H.264
Аудио кодек: AC3
Видео: 2781 Кбит/с, 1280х720, 24 кадра/с, 0.126 bpp
Аудио 1: русский, AC3, 192 kbps, 2 ch, 48 kHz [профессиональный многоголосый, вариант 1]
Аудио 2: русский, AC3, 192 kbps, 2 ch, 48 kHz [профессиональный многоголосый, вариант 2]
Аудио 3: английский, AC3, 192 kbps, 2 ch, 48 kHz [оригинал]

Имеются неименованные главы/чаптеры.
Золотой глобус, 2014 год
Номинации (1):
Лучшая актриса мини-сериала или фильма на ТВ (Хелена Бонем Картер)

Эмми, 2014 год
Номинации (1):
Лучшая женская роль в мини-сериале или телефильме (Хелена Бонем Картер)

Премия Гильдии актеров, 2014 год
Номинации (1):
Лучшая женская роль в телефильме или минисериале (Хелена Бонем Картер)
frame I:1027 Avg QP:13.49 size: 95508
frame P:25400 Avg QP:14.56 size: 34438
frame B:97486 Avg QP:16.76 size: 8866

Общее
Уникальный идентификатор : 247157324532345179246685879145364671036 (0xB9F0C4EC3390BD5B8AFDE24B7F474A3C)
Полное имя : D:VideoBerton i Tejlor.2013.BDRip.720p.mkv
Формат : Matroska
Версия формата : Version 4 / Version 2
Размер файла : 2,06 Гбайт
Продолжительность : 1 ч. 26 м.
Общий поток : 3425 Кбит/сек
Дата кодирования : UTC 2015-03-13 17:38:26
Программа кодирования : mkvmerge v7.7.0 ('Six Voices') 64bit built on Feb 28 2015 23:39:33
Библиотека кодирования : libebml v1.3.1 + libmatroska v1.4.2
_STATISTICS_WRITING_APP : mkvmerge v7.7.0 ('Six Voices') 64bit built on Feb 28 2015 23:39:33
_STATISTICS_WRITING_DATE_UTC : 2015-03-13 17:38:26
_STATISTICS_TAGS : BPS DURATION NUMBER_OF_FRAMES NUMBER_OF_BYTES
DURATION : 01:25:00.999000000
NUMBER_OF_FRAMES : 1075
NUMBER_OF_BYTES : 38429

Видео
Идентификатор : 1
Формат : AVC
Формат/Информация : Advanced Video Codec
Профиль формата : High@L4.1
Параметр CABAC формата : Да
Параметр ReFrames формата : 9 кадров
Идентификатор кодека : V_MPEG4/ISO/AVC
Продолжительность : 1 ч. 26 м.
Битрейт : 2781 Кбит/сек
Ширина : 1280 пикселей
Высота : 720 пикселей
Соотношение сторон : 16:9
Режим частоты кадров : Постоянный
Частота кадров : 24,000 кадра/сек
Цветовое пространство : YUV
Субдискретизация насыщенности : 4:2:0
Битовая глубина : 8 бит
Тип развёртки : Прогрессивная
Бит/(Пиксели*Кадры) : 0.126
Размер потока : 1,67 Гбайт (81%)
Заголовок : BDRip -- STarankov
Библиотека кодирования : x264 core 142 r2431 ac76440
Настройки программы : cabac=1 / ref=9 / deblock=1:-2:-2 / analyse=0x3:0x113 / me=umh / subme=10 / psy=1 / psy_rd=1.00:0.15 / mixed_ref=1 / me_range=32 / chroma_me=1 / trellis=2 / 8x8dct=1 / cqm=0 / deadzone=21,11 / fast_pskip=1 / chroma_qp_offset=-3 / threads=6 / lookahead_threads=1 / sliced_threads=0 / nr=0 / decimate=1 / interlaced=0 / bluray_compat=0 / constrained_intra=0 / bframes=8 / b_pyramid=2 / b_adapt=2 / b_bias=0 / direct=3 / weightb=1 / open_gop=0 / weightp=2 / keyint=230 / keyint_min=23 / scenecut=40 / intra_refresh=0 / rc_lookahead=40 / rc=crf / mbtree=0 / crf=18.0 / qcomp=0.60 / qpmin=0 / qpmax=69 / qpstep=4 / vbv_maxrate=40000 / vbv_bufsize=50000 / crf_max=0.0 / nal_hrd=none / filler=0 / ip_ratio=1.40 / pb_ratio=1.30 / aq=1:1.00
Язык : English
Default : Да
Forced : Нет
DURATION : 01:26:03.042000000
NUMBER_OF_FRAMES : 123913
NUMBER_OF_BYTES : 1837173738
_STATISTICS_WRITING_APP : mkvmerge v7.7.0 ('Six Voices') 64bit built on Feb 28 2015 23:39:33
_STATISTICS_WRITING_DATE_UTC : 2015-03-13 17:38:26
_STATISTICS_TAGS : BPS DURATION NUMBER_OF_FRAMES NUMBER_OF_BYTES

Аудио #1
Идентификатор : 2
Формат : AC-3
Формат/Информация : Audio Coding 3
Расширение режима : CM (complete main)
Параметр Endianness формата : Big
Идентификатор кодека : A_AC3
Продолжительность : 1 ч. 26 м.
Вид битрейта : Постоянный
Битрейт : 192 Кбит/сек
Каналы : 2 канала
Расположение каналов : Front: L R
Частота : 48,0 КГц
Битовая глубина : 16 бит
Метод сжатия : С потерями
Размер потока : 118 Мбайт (6%)
Заголовок : MVO (вариант 1)
Язык : Russian
Default : Да
Forced : Нет

Аудио #2
Идентификатор : 3
Формат : AC-3
Формат/Информация : Audio Coding 3
Расширение режима : CM (complete main)
Параметр Endianness формата : Big
Идентификатор кодека : A_AC3
Продолжительность : 1 ч. 26 м.
Вид битрейта : Постоянный
Битрейт : 192 Кбит/сек
Каналы : 2 канала
Расположение каналов : Front: L R
Частота : 48,0 КГц
Битовая глубина : 16 бит
Метод сжатия : С потерями
Размер потока : 118 Мбайт (6%)
Заголовок : MVO (вариант 2)
Язык : Russian
Default : Нет
Forced : Нет

Аудио #3
Идентификатор : 4
Формат : AC-3
Формат/Информация : Audio Coding 3
Расширение режима : CM (complete main)
Параметр Endianness формата : Big
Идентификатор кодека : A_AC3
Продолжительность : 1 ч. 26 м.
Вид битрейта : Постоянный
Битрейт : 192 Кбит/сек
Каналы : 2 канала
Расположение каналов : Front: L R
Частота : 48,0 КГц
Битовая глубина : 16 бит
Метод сжатия : С потерями
Размер потока : 118 Мбайт (6%)
Заголовок : Original
Язык : English
Default : Нет
Forced : Нет

Текст
Идентификатор : 5
Формат : UTF-8
Идентификатор кодека : S_TEXT/UTF8
Идентификатор кодека/Информация : UTF-8 Plain Text
Заголовок : английские (для слабослышащих)
Язык : English
Default : Нет
Forced : Нет

Меню
00:00:00.000 : :Chapter 01
00:07:39.290 : :Chapter 02
00:16:34.583 : :Chapter 03
00:24:56.416 : :Chapter 04
00:32:45.833 : :Chapter 05
00:38:38.500 : :Chapter 06
00:47:21.500 : :Chapter 07
00:53:52.000 : :Chapter 08
00:59:40.291 : :Chapter 09
01:06:21.416 : :Chapter 10
01:12:10.416 : :Chapter 11
01:19:31.416 : :Chapter 12
01:24:39.332 : :Chapter 13
01:26:01.000 : :Chapter 14
pb.wtf



Скачать Бёртон и Тейлор через торрент http://i59.fastpic.ru/big/2015/0313/e2/d7f24459449462ce1f65cc7405dbcee2.jpg Скачать фильм Бёртон и Тейлор через торрент бесплантно в хорошем качестве Описание: После второго развода Ричард Бёртон и Элизабет Тейлор снова встречаются в 1983 году для новой постановки пьесы "Интимная ... 7.8 10 4
Торрент: Зарегистрирован [2015-03-14 09:19] · скачан: 23 раз
Статус: √ проверено
Размер: 2.06 GB
Как cкачать? Как скачать Бёртон и Тейлор через торрент | qTorrent

% Раздел Тема Автор DL S | L
Фильмы до 2000 г. [ 1.13 GB ] Бёртон и Тейлор / Burton and Taylor [2013 BDRip-AVC] 2 x MVO msltel Скачать
1 | 0

28-11-2019 20:33  

Отключить всю рекламу на сайте

    Дорогой пользователь! Огромная просьба, поблагодарите релизера, оцените раздачу и оставьте свои комментарий, если Вы скачали Бёртон и Тейлор через торрент бесплатно! Внесите свою лепту в развитие PiratBit!
    Комментировать посты могут только пользователи прошедшие не сложную регистрацию
    Показать сообщения:    

    Бёртон и Тейлор через торрент
    Скачать бесплатно Бёртон и Тейлор
    Бёртон и Тейлор скачать торрент
    Бёртон и Тейлор смотреть онлайн
    Cкачать фильм Бёртон и Тейлор бесплатно
    Бёртон и Тейлор скачать торрент в хорошем качестве
    Бёртон и Тейлор смотреть онлайн бесплатно в хорошем качестве


    Вы не можете начинать темы
    Вы не можете отвечать на сообщения
    Вы не можете редактировать свои сообщения
    Вы не можете удалять свои сообщения
    Вы не можете голосовать в опросах
    Вы не можете прикреплять файлы к сообщениям
    Вы можете скачивать файлы