Присоединяйтесь к нам в Telegram!, здесь всегда актуальный адрес сайта, оперативная поддержка и многое другое!!

>

5.9

iTunes

7.4

iTunes

9.4

1 сезон

1

7.4

2 сезон

7.2

iTunes

7.3

1 сезон

13

6.1

iTunes

8.3

GOG

30

ULTIMATE

pack

9.9

Лицензия

ВАЖНО

ИГРА 18+

pack

7.3

RePack

MK11

7.7

RePack

jed

7.8

RePack

fifa19

8.5

RePack

RDR2

RePack

NEED FOR SPEED™ PAYBACK

5 сезон

9 сезон

Бесстыжие 9 сезон

Все сериалы

все сериалы на PB.wtf

RePack

FAR CRY 5

Anonymous, добрый день, мы катастрофически не успеваем собрать деньги на оплату серверов, помогите нам пожалуйста 5,10,15р., для нас важна любая помощь . В качестве благодарности мы отключим Вам всю рекламу на сайте (укажите свой ник в строку Ваше имя)!

×
  
Magnet ссылка

Эти вкусные красивые девушки / These beautiful delicious girls [2015 г., Adult erotic music clips, WEB-DLRip 720p, Оригинал] pb.wtf

Эти вкусные красивые девушки через торрент pb.wtf

Размер: 4.54 GB | Добавлен: 6 лет 8 мес. назад | Торрент скачан:635 раз
Смотреть онлайн Эти вкусные красивые девушки | Скачать    Ребята, помогите собрать деньги на оплату серверов!!!

14-03-2015 10:23 Эти вкусные красивые девушки Скачать торрент  

Эти вкусные красивые девушки / These beautiful delicious girls
Год выпуска: 2015
Страна: All World
Жанр: Adult erotic music clips
Продолжительность: 03:25:16
Перевод: Оригинал

Описание:

Красивые и просто сексуально эротические клипы с прекрасными девушками и чудесной музыкой....
01. Irina [05:01]
02. Clover sexy & naked in the Bathroom [02:46]
03. STARS - Changes [04:58]
04. Trinota Latoya [04:11]
05. Safari Amusement Park [01:57]
06. Penelope [03:17]
07. Baby Doll - DJ G Skillz ( Mix) [04:15]
08. Villagia Polina [03:00]
09. Gorgeous teen Guerlain Compilation [10:36]
10. High [04:57]
11. Cheeky Morning [02:15]
12. Lediana Ralina [05:00]
13. Shared Recollections [03:58]
14. Vikki [05:44]
15. Christina Ripple - Little White Bow [08:46]
16. Piatz Irina [06:36]
17. Ciara Price - A Sexy Afternoon [08:14]
18. Polana [05:14]
19. Alysha [03:20]
20. Erica James - Big Shot [03:16]
21. Malenaf [04:08]
22. EROTIC WATER AND RAIN - Feat. Jill Storm By Loris Gonfiotti [06:21]
23. Curlia Gia [05:01]
24. EverythingButt - California (hard)[05:53]
25. Silienta Wanda [05:00]
26. Kara Owens - Black Balloon [02:36]
27. Bekkin Ralina [08:04]
28. Leila Lewis - Tension [04:13]
29. Seacoast Luciana [04:36]
30. Mika Lovely - Bodybinds [02:16]
31. Nedda and Welesa [04:10]
32. Bethere Lina - Diamond [05:39]
33. Mollie Monroe - When I'm Small [03:02]
34. Warai Quinn [03:08]
35. Lato Liv [05:15]
36. Moxy Martinez - Don't Ever Leave Me [02:07]
37. Star Sandra - Celesti [03:11]
38. Emily - Speaking Emily-Bloom [05:24]
39. 5-4-3-2-1 - Janelle [05:42]
40. Beibedi Wendy - Burrow [05:05]
41. Vivienne l'Amour - The Vagina Monoprints [03:00]
42. Finne Martina [03:14]
43. Leadych Natasha [04:15]
44. Pletiena Itna [03:06]
45. Sandis Katia - Mau [03:07]
Качество: WEB-DLRip 720p
Формат: MP4
Видео кодек: AVC
Аудио кодек: AAC
Видео: AVC, 1280x720,1920x1080 (16:9), 25.000 fps, 2 -5 000 Kbps (0.087 bit/pixel)
Аудио#1: AAC LC, 44.1-48.0 KHz, 2 ch, 127-128 Kbps, VBR, CBR (English)
Релиз от: terras
скриншот   скриншот   скриншот   скриншот   скриншот   скриншот  
скриншот   скриншот   скриншот   скриншот   скриншот   скриншот  

Общее
Полное имя : D:\Архив\Клипы\These beautiful delicious girls (2015)\01. Irina.mp4
Формат : MPEG-4
Профиль формата : Base Media
Идентификатор кодека : isom
Размер файла : 77,0 Мбайт
Продолжительность : 5 м. 1 с.
Режим общего битрейта : Переменный
Общий поток : 2139 Кбит/сек
Дата кодирования : UTC 1970-01-01 00:00:00
Дата пометки : UTC 1970-01-01 00:00:00
Программа кодирования : Lavf52.86.0

Видео
Идентификатор : 1
Формат : AVC
Формат/Информация : Advanced Video Codec
Профиль формата : High@L3.1
Параметр CABAC формата : Да
Параметр ReFrames формата : 5 кадров
Идентификатор кодека : avc1
Идентификатор кодека/Информация : Advanced Video Coding
Продолжительность : 5 м. 1 с.
Битрейт : 2000 Кбит/сек
Ширина : 1280 пикселей
Высота : 720 пикселей
Соотношение сторон : 16:9
Режим частоты кадров : Постоянный
Частота кадров : 25,000 кадров/сек
Цветовое пространство : YUV
Субдискретизация насыщенности : 4:2:0
Битовая глубина : 8 бит
Тип развёртки : Прогрессивная
Бит/(Пиксели*Кадры) : 0.087
Размер потока : 72,2 Мбайт (94%)
Библиотека кодирования : x264 core 108
Настройки программы :
Язык : English
Дата кодирования : UTC 1970-01-01 00:00:00
Дата пометки : UTC 1970-01-01 00:00:00

Аудио
Идентификатор : 2
Формат : AAC
Формат/Информация : Advanced Audio Codec
Профиль формата : LC
Идентификатор кодека : 40
Продолжительность : 5 м. 1 с.
Вид битрейта : Переменный
Битрейт : 127 Кбит/сек
Каналы : 2 канала
Расположение каналов : Front: L R
Частота : 48,0 КГц
Метод сжатия : С потерями
Размер потока : 4,58 Мбайт (6%)
Язык : English
Дата кодирования : UTC 1970-01-01 00:00:00
Дата пометки : UTC 1970-01-01 00:00:00

Общее
Полное имя : D:\Архив\Клипы\These beautiful delicious girls (2015)\31. Nedda and Welesa.mp4
Формат : MPEG-4
Профиль формата : Base Media
Идентификатор кодека : isom
Размер файла : 154 Мбайт
Продолжительность : 4 м. 10 с.
Общий поток : 5139 Кбит/сек
Программа кодирования : Lavf55.37.102

Видео
Идентификатор : 1
Формат : AVC
Формат/Информация : Advanced Video Codec
Профиль формата : High@L4.0
Параметр CABAC формата : Да
Параметр ReFrames формата : 5 кадров
Идентификатор кодека : avc1
Идентификатор кодека/Информация : Advanced Video Coding
Продолжительность : 4 м. 10 с.
Битрейт : 5000 Кбит/сек
Ширина : 1920 пикселей
Высота : 1080 пикселей
Соотношение сторон : 16:9
Режим частоты кадров : Постоянный
Частота кадров : 25,000 кадров/сек
Цветовое пространство : YUV
Субдискретизация насыщенности : 4:2:0
Битовая глубина : 8 бит
Тип развёртки : Прогрессивная
Бит/(Пиксели*Кадры) : 0.096
Размер потока : 150 Мбайт (97%)
Библиотека кодирования : x264 core 129 r2245 bc13772
Настройки программы :
Язык : English

Аудио
Идентификатор : 2
Формат : AAC
Формат/Информация : Advanced Audio Codec
Профиль формата : LC
Идентификатор кодека : 40
Продолжительность : 4 м. 10 с.
Вид битрейта : Постоянный
Битрейт : 128 Кбит/сек
Каналы : 2 канала
Расположение каналов : Front: L R
Частота : 44,1 КГц
Метод сжатия : С потерями
Размер потока : 3,82 Мбайт (2%)
Язык : English

pb.wtf



Скачать Эти вкусные красивые девушки через торрент https://pic1.kartinco.top/images/10/z7sgh.jpg Скачать, смотреть онлайн Эти вкусные красивые девушки бесплантно в хорошем качестве Описание: Красивые и просто сексуально эротические клипы с прекрасными девушками и чудесной музыкой.... Irina [05:01] Clover sexy & ... 9.4 10 34
Info! Золотая раздача, скачанное не засчитывается.
Торрент: Зарегистрирован [2015-03-14 10:23] · скачан: 635 раз
Статус: √ проверено
Размер: 4.54 GB
Как cкачать? Как скачать Эти вкусные красивые девушки через торрент | UTorrent

% Раздел Тема Автор DL S | L
Клипы [ 4.41 GB ] Эти вкусные красивые девушки / These beautiful delicious girls vol.3 [2015 Adult erotic music clips WEB-DLRip 1080p Оригинал] siurpriz Скачать
1 | 0
Клипы [ 6.44 GB ] Эти вкусные красивые девушки / These beautiful delicious girls vol.2 [2015 Adult erotic music clips WEB-DLRip 720p Оригинал] siurpriz Скачать
1 | 0

28-11-2019 20:33  

Отключить всю рекламу на сайте

14-03-2015 14:14 Эти вкусные красивые девушки Скачать торрент  

Девушки действительно-красивые.Насчёт"вкусные"-ничего не могу сказать.Не пробовал pb.wtf



    Дорогой пользователь! Огромная просьба, поблагодарите релизера, оцените раздачу и оставьте свои комментарий, если Вы скачали Эти вкусные красивые девушки через торрент бесплатно!
    Комментировать посты могут только пользователи прошедшие не сложную регистрацию
    Показать сообщения:    

    Эти вкусные красивые девушки через торрент
    Скачать бесплатно Эти вкусные красивые девушки
    Эти вкусные красивые девушки скачать торрент
    Эти вкусные красивые девушки смотреть онлайн
    Cкачать фильм Эти вкусные красивые девушки бесплатно
    Эти вкусные красивые девушки скачать торрент в хорошем качестве
    Эти вкусные красивые девушки смотреть онлайн бесплатно в хорошем качестве


    Вы не можете начинать темы
    Вы не можете отвечать на сообщения
    Вы не можете редактировать свои сообщения
    Вы не можете удалять свои сообщения
    Вы не можете голосовать в опросах
    Вы не можете прикреплять файлы к сообщениям
    Вы можете скачивать файлы