MEGA NEWS Получи личный уникальный адрес сайта и защити себя от блокировок. Внимание количество ограничено!!!

iTunes

1+1

iTunes

мы

iTunes

1

iTunes

Чернобыль

iTunes

Ральф против интернета

Лицензия

ПШазам

Лицензия

Игра престолов

Лицензия

30
pack

ВАЖНО

!!Акция!!

Alien_RageХит недели

RePack

Resident Evil 21

ИГРА 18+

pack

RePack

Metro:Exodus

!!Акция!!

Alien_Rage

RePack

fifa19

RePack

Assassins Creed: Odyssey

RePack

NEED FOR SPEED™ PAYBACK

3 сезон

9 сезон

Бесстыжие 9 сезон

Все сериалы

все сериалы на PB.wtf

RePack

FAR CRY 5
Ребята, катастрофически не хватает 1900р. для оплаты серверов за АВГУСТ (всвязи с блокировками трафик упал в 3 раза), 1-2р., выручайте.
  

Чужая дочь / Audrey Rose (Роберт Уайз) [1977, ужасы, фэнтези, триллер, драма, BDRip-AVC] MVO pb.wtf

Чужая дочь через торрент pb.wtf

Размер: 4.21 GB | Добавлен: 4 года 7 мес. назад | Торрент скачан:33 раза
Скачать  

15-03-2015 07:26 Чужая дочь Скачать торрент  

Чужая дочь / Audrey Rose

Год выпуска: 1977
Страна: США
Жанр: ужасы, фэнтези, триллер, драма
Продолжительность: 01:53:22
Перевод: профессиональный многоголосый
Субтитры: английские (для слабослышащих)

Режиссёр: Роберт Уайз

В ролях: Марша Мейсон, Энтони Хопкинс, Джон Бек, Сьюзэн Свифт, Норман Ллойд, Джон Хиллерман, Роберт Уолден, Филип Стерлинг, Айви Джонс, Стивен Перлман, Мэри Джексон, Ричард Лоусон, Тони Бранд, Элизабет Фарли, Рут Мэннинг, Стэнли Брок, Дэвид Уилсон, Дэвид Фреско, Пэт Корли, Юнис Кристофер, Карен Андерс, Фред Д. Скотт

Описание: Всё о чём мечтают Билл и Дженет Темплтон, это спокойная, неторопливая жизнь со своей 11-летней дочерью Иви. Но их мечты однажды превращаются в прах: у Иви появляются видения о жутких событиях, которые с ней никогда не происходили, а их самих начинает маниакально преследовать странный незнакомец, пытающийся убедить их в том, что Иви не их дочь. И когда бывшая счастливая пара думает, что ничего хуже этого произойти не может, они сталкиваются с ужасом, который не увидишь даже в самых страшных снах, — с силой из загробного мира, пытающейся уничтожить самое ценное, что есть в их жизни — их дочь...



Качество: BDRip-AVC Сравнение с исходником
Формат: MKV
Видео кодек: H.264
Видео: 4633 Кбит/с, 1024x554, 23.976 кадра/с, 0.341 bpp
Аудио 1: русский, AC3, 384 kbps, 2 ch, 48 kHz [профессиональный многоголосый, НТВ+]
Аудио 2: английский, AC3, 192 kbps, 2 ch, 48 kHz [оригинал]

Имеются неименованные главы/чаптеры.
frame I:1064 Avg QP:21.33 size: 62710
frame P:26802 Avg QP:22.20 size: 38684
frame B:135205 Avg QP:24.14 size: 21628

Общее
Уникальный идентификатор : 244076475549442633156175632391454664730 (0xB79F6B571F140A10ACAEE53A7C45281A)
Полное имя : D:VideoChugaja doch.1977.BDRip.AVC.mkv
Формат : Matroska
Версия формата : Version 4 / Version 2
Размер файла : 4,21 Гбайт
Продолжительность : 1 ч. 53 м.
Общий поток : 5315 Кбит/сек
Дата кодирования : UTC 2015-03-14 04:15:00
Программа кодирования : mkvmerge v7.7.0 ('Six Voices') 64bit built on Feb 28 2015 23:39:33
Библиотека кодирования : libebml v1.3.1 + libmatroska v1.4.2
_STATISTICS_WRITING_APP : mkvmerge v7.7.0 ('Six Voices') 64bit built on Feb 28 2015 23:39:33
_STATISTICS_WRITING_DATE_UTC : 2015-03-14 04:15:00
_STATISTICS_TAGS : BPS DURATION NUMBER_OF_FRAMES NUMBER_OF_BYTES
DURATION : 01:50:44.053000000
NUMBER_OF_FRAMES : 1572
NUMBER_OF_BYTES : 48729

Видео
Идентификатор : 1
Формат : AVC
Формат/Информация : Advanced Video Codec
Профиль формата : High@L4.1
Параметр CABAC формата : Да
Параметр ReFrames формата : 9 кадров
Идентификатор кодека : V_MPEG4/ISO/AVC
Продолжительность : 1 ч. 53 м.
Битрейт : 4633 Кбит/сек
Ширина : 1024 пикселя
Высота : 554 пикселя
Соотношение сторон : 1,85:1
Режим частоты кадров : Постоянный
Частота кадров : 23,976 кадра/сек
Цветовое пространство : YUV
Субдискретизация насыщенности : 4:2:0
Битовая глубина : 8 бит
Тип развёртки : Прогрессивная
Бит/(Пиксели*Кадры) : 0.341
Размер потока : 3,67 Гбайт (87%)
Заголовок : BDRip -- STarankov
Библиотека кодирования : x264 core 142 r2431 ac76440
Настройки программы : cabac=1 / ref=9 / deblock=1:-2:-2 / analyse=0x3:0x113 / me=umh / subme=10 / psy=1 / psy_rd=1.00:0.15 / mixed_ref=1 / me_range=32 / chroma_me=1 / trellis=2 / 8x8dct=1 / cqm=0 / deadzone=21,11 / fast_pskip=1 / chroma_qp_offset=-3 / threads=6 / lookahead_threads=1 / sliced_threads=0 / nr=0 / decimate=1 / interlaced=0 / bluray_compat=0 / constrained_intra=0 / bframes=8 / b_pyramid=2 / b_adapt=2 / b_bias=0 / direct=3 / weightb=1 / open_gop=0 / weightp=2 / keyint=230 / keyint_min=23 / scenecut=40 / intra_refresh=0 / rc_lookahead=40 / rc=crf / mbtree=0 / crf=20.0 / qcomp=0.60 / qpmin=0 / qpmax=69 / qpstep=4 / vbv_maxrate=40000 / vbv_bufsize=50000 / crf_max=0.0 / nal_hrd=none / filler=0 / ip_ratio=1.40 / pb_ratio=1.30 / aq=1:1.00
Язык : English
Default : Да
Forced : Нет
DURATION : 01:53:21.420000000
NUMBER_OF_FRAMES : 163071
NUMBER_OF_BYTES : 4027748411
_STATISTICS_WRITING_APP : mkvmerge v7.7.0 ('Six Voices') 64bit built on Feb 28 2015 23:39:33
_STATISTICS_WRITING_DATE_UTC : 2015-03-14 04:15:00
_STATISTICS_TAGS : BPS DURATION NUMBER_OF_FRAMES NUMBER_OF_BYTES

Аудио #1
Идентификатор : 2
Формат : AC-3
Формат/Информация : Audio Coding 3
Расширение режима : CM (complete main)
Параметр Endianness формата : Big
Идентификатор кодека : A_AC3
Продолжительность : 1 ч. 53 м.
Вид битрейта : Постоянный
Битрейт : 384 Кбит/сек
Каналы : 2 канала
Расположение каналов : Front: L R
Частота : 48,0 КГц
Битовая глубина : 16 бит
Метод сжатия : С потерями
Размер потока : 311 Мбайт (7%)
Заголовок : MVO
Язык : Russian
Default : Да
Forced : Нет

Аудио #2
Идентификатор : 3
Формат : AC-3
Формат/Информация : Audio Coding 3
Расширение режима : CM (complete main)
Параметр Endianness формата : Big
Идентификатор кодека : A_AC3
Продолжительность : 1 ч. 53 м.
Вид битрейта : Постоянный
Битрейт : 192 Кбит/сек
Каналы : 2 канала
Расположение каналов : Front: L R
Частота : 48,0 КГц
Битовая глубина : 16 бит
Метод сжатия : С потерями
Размер потока : 156 Мбайт (4%)
Заголовок : Original
Язык : English
Default : Нет
Forced : Нет

Текст
Идентификатор : 4
Формат : UTF-8
Идентификатор кодека : S_TEXT/UTF8
Идентификатор кодека/Информация : UTF-8 Plain Text
Заголовок : английский (для слабослышащих)
Язык : English
Default : Нет
Forced : Нет

Меню
00:00:00.000 : :Chapter 01
00:10:56.154 : :Chapter 02
00:20:15.462 : :Chapter 03
00:31:11.160 : :Chapter 04
00:43:00.702 : :Chapter 05
00:49:52.322 : :Chapter 06
01:00:23.577 : :Chapter 07
01:12:42.523 : :Chapter 08
01:21:06.861 : :Chapter 09
01:31:16.594 : :Chapter 10
01:40:16.175 : :Chapter 11
01:51:53.081 : :Chapter 12
01:53:21.377 : :Chapter 13
pb.wtf



Скачать Чужая дочь через торрент http://i64.fastpic.ru/big/2015/0214/09/bc6b2c58ef49855829f0ecea88338a09.jpg Скачать фильм Чужая дочь через торрент бесплантно в хорошем качестве Описание: Всё о чём мечтают Билл и Дженет Темплтон, это спокойная, неторопливая жизнь со своей 11-летней дочерью Иви. Но их мечты однажды ... 1 10 1
Торрент: Зарегистрирован [2015-03-15 07:26] · скачан: 33 раз
Статус: √ проверено
Размер: 4.21 GB
Как cкачать? Как скачать Чужая дочь через торрент | qTorrent

% Раздел Тема Автор DL S | L
Фильмы [HD 720p, 1080p] (Хороший звук DUB, MVO) [ 15.73 GB ] Чужая дочь / Audrey Rose [1977 BDRip 1080p] MVO msltel Скачать
1 | 0
Фильмы [HD 720p, 1080p] (Хороший звук DUB, MVO) [ 6.77 GB ] Чужая дочь / Audrey Rose [1977 BDRip 720p] MVO msltel Скачать
1 | 0


>> Регистрируемся здесь <<






Отзывы и комментарии о схеме читаем и пишем здесь: ---> Отзывы и комментарии о схеме

Новые благодарочки в телеграм довольных пользователей:
скриншот   скриншот   скриншот   скриншот   скриншот
    Дорогой пользователь! Огромная просьба, поблагодарите релизера, оцените раздачу и оставьте свои комментарий, если Вы скачали Чужая дочь через торрент бесплатно! Внесите свою лепту в развитие PiratBit!
    Комментировать посты могут только пользователи прошедшие не сложную регистрацию
    Показать сообщения:    

    Чужая дочь через торрент
    Скачать бесплатно Чужая дочь
    Чужая дочь скачать торрент
    Чужая дочь смотреть онлайн
    Cкачать фильм Чужая дочь бесплатно
    Чужая дочь скачать торрент в хорошем качестве
    Чужая дочь смотреть онлайн бесплатно в хорошем качестве


    Вы не можете начинать темы
    Вы не можете отвечать на сообщения
    Вы не можете редактировать свои сообщения
    Вы не можете удалять свои сообщения
    Вы не можете голосовать в опросах
    Вы не можете прикреплять файлы к сообщениям
    Вы можете скачивать файлы