Ссылка на приватное зеркало нашего сайта всего за 1$. Внимание количество ограничено!!!

2 сезон

iTunes

1 сезон

1

iTunes

iTunes

iTunes

1 сезон

RePack

30

ИГРА 18+

pack

ВАЖНО

!!Акция!!

Alien_RageХит недели

RePack

MK11
pack

Забери бонус

RePack

jed

!!Акция!!

Alien_Rage

RePack

fifa19

RePack

Assassins Creed: Odyssey

RePack

NEED FOR SPEED™ PAYBACK

4 сезон

9 сезон

Бесстыжие 9 сезон

Все сериалы

все сериалы на PB.wtf

RePack

FAR CRY 5
  

Наблюдатель / The Watcher (Джо Чарбэник) [2000, триллер, криминал, детектив, BDRip 720p] DUB, MVO, AVO pb.wtf

Наблюдатель через торрент pb.wtf

Размер: 5.03 GB | Добавлен: 5 лет 7 мес. назад | Торрент скачан:116 раз
Скачать  

15-03-2015 10:22 Наблюдатель Скачать торрент  

Наблюдатель / The Watcher

Год выпуска: 2000
Страна: США
Жанр: триллер, криминал, детектив
Продолжительность: 01:36:58
Перевод: дублированный, профессиональный многоголосый, авторский
Субтитры: русские, английские

Режиссёр: Джо Чарбэник

В ролях: Киану Ривз, Джеймс Спэйдер, Мариса Томей, Эрни Хадсон, Крис Эллис, Роберт Чиккини, Ивонн Найами, Дженни МакШейн, Джина Александр, Ребека Луиз Смит, Джозеф Сикора, Джилл Петерсон, Эндрю Ротенберг, Дэвид Паскеси, Дэна Козлов, Мэрлин Доддс Фрэнк, Ребекка Артур, Джейсон Уэллс

Описание: Восемь лет агент ФБР Джоел Кэмпбелл выслеживал серийного убийцу. Однако не в силах больше постигать извращённую логику маньяка, травмированный физически и морально, после долгих лет тщетных поисков он оставляет службу и переезжает в другой город. Там Кэмпбелл надеется обрести покой и зажить по-новому. Казалось бы, ничто не в силах помешать ему навсегда расстаться с ужасным прошлым. Но не успел он прожить на новом месте и нескольких месяцев, как по городу прокатывается волна зверских убийств, имеющих всё тот же до ужаса знакомый почерк. Маньяк Дэвид Гриффин затевает с агентом ФБР опасную игру, ставка в которой - жизнь...



Качество: BDRip 720p Сравнение с исходником
Формат: MKV
Видео кодек: H.264
Аудио кодек: AC3
Видео: 5805 Кбит/с, 1280x694, 23.976 кадра/с, 0.273 bpp
Аудио 1: русский, AC3, 384 kbps, 6 ch, 48 kHz [дублированный, R5]
Аудио 2: русский, AC3, 192 kbps, 2 ch, 48 kHz [профессиональный многоголосый]
Аудио 3: русский, AC3, 448 kbps, 6 ch, 48 kHz [авторский, Юрий Живов]
Аудио 4: английский, AC3, 448 kbps, 6 ch, 48 kHz [оригинал]

Имеются неименованные главы/чаптеры.
frame I:1089 Avg QP:17.01 size:109689
frame P:27168 Avg QP:17.87 size: 55647
frame B:111260 Avg QP:19.94 size: 24241

Общее
Уникальный идентификатор : 219153871485268378317243936800598083865 (0xA4DF801714B7CD598606E5AD1E5F4919)
Полное имя : D:VideoNabljudatel.2000.BDRip.720p.mkv
Формат : Matroska
Версия формата : Version 4 / Version 2
Размер файла : 5,03 Гбайт
Продолжительность : 1 ч. 36 м.
Общий поток : 7425 Кбит/сек
Дата кодирования : UTC 2015-03-15 04:28:16
Программа кодирования : mkvmerge v7.7.0 ('Six Voices') 64bit built on Feb 28 2015 23:39:33
Библиотека кодирования : libebml v1.3.1 + libmatroska v1.4.2
_STATISTICS_WRITING_APP : mkvmerge v7.7.0 ('Six Voices') 64bit built on Feb 28 2015 23:39:33
_STATISTICS_WRITING_DATE_UTC : 2015-03-15 04:28:16
_STATISTICS_TAGS : BPS DURATION NUMBER_OF_FRAMES NUMBER_OF_BYTES
DURATION : 01:27:28.250000000
NUMBER_OF_FRAMES : 820
NUMBER_OF_BYTES : 32354

Видео
Идентификатор : 1
Формат : AVC
Формат/Информация : Advanced Video Codec
Профиль формата : High@L4.1
Параметр CABAC формата : Да
Параметр ReFrames формата : 9 кадров
Идентификатор кодека : V_MPEG4/ISO/AVC
Продолжительность : 1 ч. 36 м.
Битрейт : 5805 Кбит/сек
Ширина : 1280 пикселей
Высота : 694 пикселя
Соотношение сторон : 1,85:1
Режим частоты кадров : Постоянный
Частота кадров : 23,976 кадра/сек
Цветовое пространство : YUV
Субдискретизация насыщенности : 4:2:0
Битовая глубина : 8 бит
Тип развёртки : Прогрессивная
Бит/(Пиксели*Кадры) : 0.273
Размер потока : 3,93 Гбайт (78%)
Заголовок : BDRip -- STarankov
Библиотека кодирования : x264 core 142 r2431 ac76440
Настройки программы : cabac=1 / ref=9 / deblock=1:-2:-2 / analyse=0x3:0x113 / me=umh / subme=10 / psy=1 / psy_rd=1.00:0.15 / mixed_ref=1 / me_range=32 / chroma_me=1 / trellis=2 / 8x8dct=1 / cqm=0 / deadzone=21,11 / fast_pskip=1 / chroma_qp_offset=-3 / threads=6 / lookahead_threads=1 / sliced_threads=0 / nr=0 / decimate=1 / interlaced=0 / bluray_compat=0 / constrained_intra=0 / bframes=8 / b_pyramid=2 / b_adapt=2 / b_bias=0 / direct=3 / weightb=1 / open_gop=0 / weightp=2 / keyint=230 / keyint_min=23 / scenecut=40 / intra_refresh=0 / rc_lookahead=40 / rc=crf / mbtree=0 / crf=19.0 / qcomp=0.60 / qpmin=0 / qpmax=69 / qpstep=4 / vbv_maxrate=40000 / vbv_bufsize=50000 / crf_max=0.0 / nal_hrd=none / filler=0 / ip_ratio=1.40 / pb_ratio=1.30 / aq=1:1.00
Язык : English
Default : Да
Forced : Нет
DURATION : 01:36:59.022000000
NUMBER_OF_FRAMES : 139517
NUMBER_OF_BYTES : 4328370740
_STATISTICS_WRITING_APP : mkvmerge v7.7.0 ('Six Voices') 64bit built on Feb 28 2015 23:39:33
_STATISTICS_WRITING_DATE_UTC : 2015-03-15 04:28:16
_STATISTICS_TAGS : BPS DURATION NUMBER_OF_FRAMES NUMBER_OF_BYTES

Аудио #1
Идентификатор : 2
Формат : AC-3
Формат/Информация : Audio Coding 3
Расширение режима : CM (complete main)
Параметр Endianness формата : Big
Идентификатор кодека : A_AC3
Продолжительность : 1 ч. 36 м.
Вид битрейта : Постоянный
Битрейт : 384 Кбит/сек
Каналы : 6 каналов
Расположение каналов : Front: L C R, Side: L R, LFE
Частота : 48,0 КГц
Битовая глубина : 16 бит
Метод сжатия : С потерями
Размер потока : 266 Мбайт (5%)
Заголовок : DUB (R5)
Язык : Russian
Default : Да
Forced : Нет

Аудио #2
Идентификатор : 3
Формат : AC-3
Формат/Информация : Audio Coding 3
Профиль формата : Dolby Digital
Расширение режима : CM (complete main)
Параметр Endianness формата : Big
Идентификатор кодека : A_AC3
Продолжительность : 1 ч. 36 м.
Вид битрейта : Постоянный
Битрейт : 192 Кбит/сек
Каналы : 2 канала
Расположение каналов : Front: L R
Частота : 48,0 КГц
Битовая глубина : 16 бит
Метод сжатия : С потерями
Размер потока : 133 Мбайт (3%)
Заголовок : MVO
Язык : Russian
Default : Нет
Forced : Нет

Аудио #3
Идентификатор : 4
Формат : AC-3
Формат/Информация : Audio Coding 3
Расширение режима : CM (complete main)
Параметр Endianness формата : Big
Идентификатор кодека : A_AC3
Продолжительность : 1 ч. 36 м.
Вид битрейта : Постоянный
Битрейт : 448 Кбит/сек
Каналы : 6 каналов
Расположение каналов : Front: L C R, Side: L R, LFE
Частота : 48,0 КГц
Битовая глубина : 16 бит
Метод сжатия : С потерями
Размер потока : 311 Мбайт (6%)
Заголовок : AVO (Юрий Живов)
Язык : Russian
Default : Нет
Forced : Нет

Аудио #4
Идентификатор : 5
Формат : AC-3
Формат/Информация : Audio Coding 3
Расширение режима : CM (complete main)
Параметр Endianness формата : Big
Идентификатор кодека : A_AC3
Продолжительность : 1 ч. 36 м.
Вид битрейта : Постоянный
Битрейт : 448 Кбит/сек
Каналы : 6 каналов
Расположение каналов : Front: L C R, Side: L R, LFE
Частота : 48,0 КГц
Битовая глубина : 16 бит
Метод сжатия : С потерями
Размер потока : 311 Мбайт (6%)
Заголовок : Original
Язык : English
Default : Нет
Forced : Нет

Текст #1
Идентификатор : 6
Формат : UTF-8
Идентификатор кодека : S_TEXT/UTF8
Идентификатор кодека/Информация : UTF-8 Plain Text
Заголовок : русские
Язык : Russian
Default : Нет
Forced : Нет

Текст #2
Идентификатор : 7
Формат : UTF-8
Идентификатор кодека : S_TEXT/UTF8
Идентификатор кодека/Информация : UTF-8 Plain Text
Заголовок : английские
Default : Нет
Forced : Нет

Меню
00:00:00.000 : :Chapter 01
00:02:59.345 : :Chapter 02
00:09:06.628 : :Chapter 03
00:14:49.847 : :Chapter 04
00:24:49.654 : :Chapter 05
00:27:58.134 : :Chapter 06
00:35:59.407 : :Chapter 07
00:44:12.274 : :Chapter 08
00:49:03.774 : :Chapter 09
00:50:25.814 : :Chapter 10
00:51:25.373 : :Chapter 11
00:52:41.366 : :Chapter 12
00:55:15.645 : :Chapter 13
01:02:10.226 : :Chapter 14
01:14:18.912 : :Chapter 15
01:21:28.341 : :Chapter 16
01:27:45.718 : :Chapter 17
01:31:48.961 : :Chapter 18
01:36:58.771 : :Chapter 19
pb.wtf



Скачать Наблюдатель через торрент http://i59.fastpic.ru/big/2015/0315/bd/0de48a01026e2cd6d88eb16a288dcebd.jpg Скачать фильм Наблюдатель через торрент бесплантно в хорошем качестве Описание: Восемь лет агент ФБР Джоел Кэмпбелл выслеживал серийного убийцу. Однако не в силах больше постигать извращённую логику маньяка, ... 8.7 10 7
Торрент: Зарегистрирован [2015-03-15 10:22] · скачан: 116 раз
Статус: √ проверено
Размер: 5.03 GB
Как cкачать? Как скачать Наблюдатель через торрент | qTorrent

% Раздел Тема Автор DL S | L
Фильмы до 2000 г. [ 3.28 GB ] Наблюдатель / The Watcher [2000 BDRip-AVC] DUB MVO AVO msltel Скачать
1 | 0

28-11-2019 20:33  

Отключить всю рекламу на сайте

    Дорогой пользователь! Огромная просьба, поблагодарите релизера, оцените раздачу и оставьте свои комментарий, если Вы скачали Наблюдатель через торрент бесплатно! Внесите свою лепту в развитие PiratBit!
    Комментировать посты могут только пользователи прошедшие не сложную регистрацию
    Показать сообщения:    

    Наблюдатель через торрент
    Скачать бесплатно Наблюдатель
    Наблюдатель скачать торрент
    Наблюдатель смотреть онлайн
    Cкачать фильм Наблюдатель бесплатно
    Наблюдатель скачать торрент в хорошем качестве
    Наблюдатель смотреть онлайн бесплатно в хорошем качестве


    Вы не можете начинать темы
    Вы не можете отвечать на сообщения
    Вы не можете редактировать свои сообщения
    Вы не можете удалять свои сообщения
    Вы не можете голосовать в опросах
    Вы не можете прикреплять файлы к сообщениям
    Вы можете скачивать файлы