Достать ножи: Стеклянная луковица

MVO

Добыча

Дубляж

Уэнсдэй

1 сезон

Тор

Дубляж

13 клиническая

1 сезон

Жестокая ночь

MVO

Одни из нас

1 сезон

Deluxe

pack

Рекомендуем

30

Пиратка

ВАЖНО

ВАЖНО

Ghostwire

Пиратка

jed

RePack

nioh2

RePack

RDR2

RePack

NEED FOR SPEED™ PAYBACK

RePack

скачать торрент

Кинопоиск HD

Острые козырьки 6 сезон

6 сезон

FAR CRY 6

RePack

скачать торрент

Лицензия

скачать торрент

MVO

1

1 сезон

скачать торрент

1 сезон

скачать торрент

Лицензия

  

Ночь в музее: Секрет гробницы / Night at the Museum: Secret of the Tomb (Шон Леви) [2014 г., фэнтези, комедия, приключения, семейный, HDRip, Дубляж,"Лицензия"]

Ночь в музее: Секрет гробницы через торрент pb.wtf

Качают: 1 [ 0 KB/s ]
Размер: 2.03 GB | Добавлен: 7 лет 10 мес. назад | Торрент скачан:443 раза
Смотреть онлайн | Скачать | Поддержите нас   

15-03-2015 18:23 Ночь в музее: Секрет гробницы Скачать торрент  

Ночь в музее: Секрет гробницы / Night at the Museum: Secret of the Tomb
Год выпуска: 2014
Страна: США , Великобритания / Twentieth Century Fox Film Corporation, 21 Laps Entertainment, 1492 Pictures
Жанр: фэнтези, комедия, приключения, семейный
Продолжительность: 01:37:48
Перевод: Дубляж (Лицензия)

Режиссер: Шон Леви

IMDB 6.30 (26 979)


В ролях: Бен Стиллер, Робин Уильямс, Оуэн Уилсон, Стив Куган, Рики Джервэйс, Дэн Стивенс, Ребел Уилсон, Скайлер Джизондо, Рами Малек, Патрик Галлахер, Александр Баргман, Геннадий Богачёв, Анатолий Петров, Борис Хасанов, Владимир Баранов

Описание: Ночной сторож Музея естественной истории в Нью-Йорке Ларри Дэйли в отчаянии: его друзья-экспонаты начинают странно себя вести, а всё потому, что оживляющая их древнеегипетская золотая пластина разрушается. Только отец фараона Ахкменра знает тайну магического артефакта, но вот беда — его мумия далеко, она выставлена в Британском музее естествознания! Команда любимых героев предпринимает беспрецедентное путешествие в Лондон. Они должны объединиться с британскими экспонатами и рискнуть всем, чтобы восстановить золотую пластину до того, как Ларри потеряет своих друзей навсегда.

Качество: HDRip
Формат: AVI
Видео кодек: XviD
Аудио кодек: AC3
Видео: 720x384 (1.88:1), 23.976 fps, XviD build 50 ~2522 kbps avg, 0.38 bit/pixel
Аудио: 48 kHz, AC3 Dolby Digital, 3/2 (L,C,R,l,r) + LFE ch, ~448 kbps

скриншот   скриншот   скриншот   скриншот   скриншот   скриншот  

Общее
Полное имя : F:\кино\Ночь в музее.Секрет гробницы.2014.HDRip.avi
Формат : AVI
Формат/Информация : Audio Video Interleave
Профиль формата : OpenDML
Размер файла : 2,03 Гбайт
Продолжительность : 1 ч. 37 м.
Общий поток : 2978 Кбит/сек
Программа кодирования : VirtualDubMod 1.5.10.3 | www.virtualdub-fr.org || (build 2550/release)
Библиотека кодирования : VirtualDubMod build 2550/release

Видео
Идентификатор : 0
Формат : MPEG-4 Visual
Профиль формата : Advanced [email protected]
Параметр BVOP формата : 2
Параметр QPel формата : Нет
Параметр GMC формата : Без точки перехода
Параметр матрицы формата : Default (H.263)
Идентификатор кодека : XVID
Идентификатор кодека/Подсказка : XviD
Продолжительность : 1 ч. 37 м.
Битрейт : 2517 Кбит/сек
Ширина : 720 пикселей
Высота : 384 пикселя
Соотношение сторон : 1,85:1
Частота кадров : 23,976 кадра/сек
Цветовое пространство : YUV
Субдискретизация насыщенности : 4:2:0
Битовая глубина : 8 бит
Тип развёртки : Прогрессивная
Метод сжатия : С потерями
Бит/(Пиксели*Кадры) : 0.380
Размер потока : 1,72 Гбайт (85%)
Библиотека кодирования : XviD 1.2.1 (UTC 2008-12-04)

Аудио
Идентификатор : 1
Формат : AC-3
Формат/Информация : Audio Coding 3
Расширение режима : CM (complete main)
Параметр Endianness формата : Big
Идентификатор кодека : 2000
Продолжительность : 1 ч. 37 м.
Вид битрейта : Постоянный
Битрейт : 448 Кбит/сек
Каналы : 6 каналов
Расположение каналов : Front: L C R, Side: L R, LFE
Частота : 48,0 КГц
Битовая глубина : 16 бит
Метод сжатия : С потерями
Размер потока : 313 Мбайт (15%)
Выравнивание : Разделение по промежуткам
Продолжительность промежутка : 42 мс. (1,00 видеокадр)
Время предзагрузки промежутка : 500 мс.

!Ворон писал(а):


*Запрещено раздавать видеофайлы в контейнере avi с битрейтом видео свыше 2500 Кбит/с.



Скачать Ночь в музее: Секрет гробницы через торрент https://pic1.kartinco.top/images/10/2wmps.jpg Скачать, смотреть онлайн Ночь в музее: Секрет гробницы бесплантно в хорошем качестве Описание: Ночной сторож Музея естественной истории в Нью-Йорке Ларри Дэйли в отчаянии: его друзья-экспонаты начинают странно себя вести, а ... 9.9 10 11
Торрент: Зарегистрирован [2015-03-15 18:23] · скачан: 443 раз
Статус: # сомнительно
Размер: 2.03 GB
Как cкачать? Как скачать Ночь в музее: Секрет гробницы через торрент | UTorrent

% Раздел Тема Автор DL S | L
Ultra HD (UHD: 2K, 4K, 8K) [ 19.08 GB ] Ночь в музее: Секрет гробницы / Night at the Museum: Secret of the Tomb | DUB | 2160p sheker187 Скачать
1 | 0
Фильмы [HD 720p, 1080p] (Хороший звук DUB, MVO) [ 4.33 GB ] Ночь в музее: Секрет гробницы / Night at the Museum: Secret of the Tomb | Лицензия | 1080p, HEVC (10 bit Мичман37 Скачать
1 | 0
Фильмы 2014 [DVDrip, WEB-DLRip, HDrip] [ 1.45 GB ] Ночь в музее: Секрет гробницы / Night at the Museum: Secret of the Tomb | Лицензия | BDRip от HQCLUB / Лицензия Ворон Скачать
1 | 0
Фильмы [HD 720p, 1080p] (Хороший звук DUB, MVO) [ 11.17 GB ] Ночь в музее: Секрет гробницы / Night at the Museum: Secret of the Tomb | | 1080p Seedtank Скачать
1 | 0
Фильмы 2014 [DVDrip, WEB-DLRip, HDrip] [ 2.18 GB ] Ночь в музее: Секрет гробницы / Night at the Museum: Secret of the Tomb | Лицензия | HDRip-AVC, Дубляж, Лицензия vovan Скачать
1 | 0
Фильмы 2014 [DVDrip, WEB-DLRip, HDrip] [ 1.42 GB ] Ночь в музее: Секрет гробницы / Night at the Museum: Secret of the Tomb | iTunes От R.G. PiratFilms | HDRip-AVC, White Smoke Скачать
1 | 0
Фильмы [HD 720p, 1080p] (Хороший звук DUB, MVO) [ 7.75 GB ] Ночь в музее: Секрет гробницы / Night at the Museum: Secret of the Tomb | DUB | 1080p _denis_100 Скачать
1 | 0

28-11-2019 20:33  


Отключить вcю реклaмy на сайте, в т.ч. и в плеере онлайн просмотра!

15-03-2015 19:02 Ночь в музее: Секрет гробницы Скачать торрент  

Как качество?



15-03-2015 19:37 Ночь в музее: Секрет гробницы Скачать торрент  

SolomonKaly, а какое может быть качество судя по тех.данным и звуку? Вы что читать разучились?
Звук с лицензии (значит звук оличный) рип бюджетный (надо лучше пользуйтесь поиском найдете рипы 1080p или 720p)



16-03-2015 17:01 Ночь в музее: Секрет гробницы Скачать торрент  

За вами граждане косяков еще больше.Взять хотя бы малое,раздача стоит не проверенной 1-2 дня



    Дорогой пользователь! Огромная просьба, поблагодарите релизера, оцените раздачу и оставьте свои комментарий, если Вы скачали Ночь в музее: Секрет гробницы через торрент бесплатно!!
    Комментировать посты могут только пользователи прошедшие не сложную регистрацию
    Показать сообщения:    


    Ночь в музее: Секрет гробницы через торрент
    Скачать бесплатно Ночь в музее: Секрет гробницы
    Ночь в музее: Секрет гробницы скачать торрент
    Ночь в музее: Секрет гробницы смотреть онлайн
    Cкачать фильм Ночь в музее: Секрет гробницы бесплатно
    Ночь в музее: Секрет гробницы скачать торрент в хорошем качестве
    Ночь в музее: Секрет гробницы смотреть онлайн бесплатно в хорошем качестве
    Вы не можете начинать темы
    Вы не можете отвечать на сообщения
    Вы не можете редактировать свои сообщения
    Вы не можете удалять свои сообщения
    Вы не можете голосовать в опросах
    Вы не можете прикреплять файлы к сообщениям
    Вы можете скачивать файлы
    Ночь в музее: Секрет гробницы / Night at the Museum: Secret of the Tomb [2014 г., фэнтези, комедия, приключения, семейный, HDRip, Дубляж,"Лицензия"] смотреть онлайн, скачать торрент picoco.icu