Всегда рабочее зеркало просто перед .vidak.icu напиши любое слово или цифру, Пример http://j1f.vidak.icu

>

7.4

iTunes

7.4

2 сезон

6.6

iTunes

1

7.4

2 сезон

7.2

iTunes

6.0

MVO

13

6.1

iTunes

8.3

Пиратка

30

ULTIMATE

pack

9.9

Лицензия

ВАЖНО

ИГРА 18+

pack

7.3

RePack

MK11

7.7

RePack

jed

7.8

RePack

fifa19

8.5

RePack

RDR2

RePack

NEED FOR SPEED™ PAYBACK

1 сезон

9 сезон

Бесстыжие 9 сезон

Все сериалы

все сериалы на PB.wtf

RePack

FAR CRY 5

Anonymous, добрый вечер, мы катастрофически не успеваем собрать деньги на оплату серверов, помогите нам пожалуйста 5,10,15р., для нас важна любая помощь . В качестве благодарности мы отключим Вам всю рекламу на сайте (укажите свой ник в строку Ваше имя)!

×
  
Magnet ссылка

Волшебная девочка / Magical Girl (Карлос Вермут ) [2014, триллер, драма, HDRip, Авторский (одноголосый)(Антон Алексеев) pb.wtf

Волшебная девочка через торрент pb.wtf

Размер: 1.46 GB | Добавлен: 6 лет 10 мес. назад | Торрент скачан:51 раз
Смотреть онлайн Волшебная девочка | Скачать    Ребята, помогите собрать деньги на оплату серверов!!!

15-03-2015 20:05 Волшебная девочка Скачать торрент  


Волшебная девочка / Magical Girl


ИНФОРМАЦИЯ:
Год выпуска:2014
Страна: Испания
Жанр: триллер, драма
Продолжительность: 02:06:55
Перевод: Авторский (одноголосый)(Антон Алексеев)
Режиссер: Карлос Вермут

В Ролях:


Хавьер Ботет (Pepo), Барбара Ленни (Bárbara), Хосе Сакристан (Damián), Луис Бермехо (Luis), Марисоль Мембрильо, Элисабет Хелаберт, Исраэль Элехальде, Хулио Аррохо, Микель Инсуа, Тереса Сория Руано, Альберто Чавес (Tendero), Лусия Польян (Alicia)

ОПИСАНИЕ:
12-летняя Алисия может не стесняясь попросить отца о сигарете и глотке джина. Для нее не существует понятия «слишком рано», потому что нет слова «потом»: девочка тяжело больна. Только костюм любимого японского анимэшного персонажа Юкико может доставить ей настоящую радость. Но волшебное платье стоит реальных денег, которые на фоне всеобщего кризиса кажутся безработному отцу запредельной суммой. Когда он случайно знакомится с богатой красавицей Барбарой, сгорающей от депрессии в холодном интерьере пустынной квартиры, в его голове рождается план – не менее страшный, чем плата за него. В борьбе между инстинктами и разумом герои перешагивают границы собственной человечности, а Карлос Вермут – границы жанров, создавая свою вселенную из эксцентричных образов японских манга и комиксов Чарльза Бернса, отсылок к Луису Бунюэлю и Карлосу Сауре.

  • Мировая премьера:17 октября 2014

    ТЕХ.ДАННЫЕ:
    Качество: HDRip
    Формат: AVI
    Видео кодек: XviD
    Аудио кодек: AC3
    Видео: XviD, 720x304 (2.35:1), 1188 kbps, 24 fps, 0,214 bpp
    Аудио: AC3 / 5.1 / 48 kHz / 448 kbps / 16 bit



    Код:

    General
    Complete name                            : D:\Торенты\Magic.girl.2014.HDRip.avi
    Format                                   : AVI
    Format/Info                              : Audio Video Interleave
    File size                                : 1.46 GiB
    Duration                                 : 2h 6mn
    Overall bit rate                         : 1 646 Kbps
    Writing application                      : VirtualDubMod 1.5.10.2 (build 2540/release)
    Writing library                          : VirtualDubMod build 2540/release

    Video
    ID                                       : 0
    Format                                   : MPEG-4 Visual
    Format profile                           : Advanced Simple@L5
    Format settings, BVOP                    : 2
    Format settings, QPel                    : No
    Format settings, GMC                     : No warppoints
    Format settings, Matrix                  : Default (MPEG)
    Codec ID                                 : XVID
    Codec ID/Hint                            : XviD
    Duration                                 : 2h 6mn
    Bit rate                                 : 1 124 Kbps
    Width                                    : 720 pixels
    Height                                   : 304 pixels
    Display aspect ratio                     : 2.35:1
    Frame rate                               : 24.000 fps
    Color space                              : YUV
    Chroma subsampling                       : 4:2:0
    Bit depth                                : 8 bits
    Scan type                                : Progressive
    Compression mode                         : Lossy
    Bits/(Pixel*Frame)                       : 0.214
    Stream size                              : 1 020 MiB (68%)
    Writing library                          : XviD 1.2.1 (UTC 2008-12-04)

    Audio
    ID                                       : 1
    Format                                   : AC-3
    Format/Info                              : Audio Coding 3
    Mode extension                           : CM (complete main)
    Codec ID                                 : 2000
    Duration                                 : 2h 6mn
    Bit rate mode                            : Constant
    Bit rate                                 : 448 Kbps
    Channel(s)                               : 6 channels
    Channel positions                        : Front: L C R, Side: L R, LFE
    Sampling rate                            : 48.0 KHz
    Bit depth                                : 16 bits
    Compression mode                         : Lossy
    Stream size                              : 407 MiB (27%)
    Alignment                                : Split accross interleaves

    Скриншоты:


    © Оформление by Ворон
    pb.wtf



  • Скачать Волшебная девочка через торрент https://pic1.kartinco.top/images/61/ordi9.jpg Скачать, смотреть онлайн Волшебная девочка бесплантно в хорошем качестве Е:12-летняя Алисия может не стесняясь попросить отца о сигарете и глотке джина. Для нее не существует понятия «слишком рано», потому что ... 7.8 10 4
    Торрент: Зарегистрирован [2015-03-15 20:05] · скачан: 51 раз
    Статус: √ проверено
    Размер: 1.46 GB
    Как cкачать? Как скачать Волшебная девочка через торрент | UTorrent

    28-11-2019 20:33  

    Отключить всю рекламу на сайте

      Дорогой пользователь! Огромная просьба, поблагодарите релизера, оцените раздачу и оставьте свои комментарий, если Вы скачали Волшебная девочка через торрент бесплатно!
      Комментировать посты могут только пользователи прошедшие не сложную регистрацию
      Показать сообщения:    

      Волшебная девочка через торрент
      Скачать бесплатно Волшебная девочка
      Волшебная девочка скачать торрент
      Волшебная девочка смотреть онлайн
      Cкачать фильм Волшебная девочка бесплатно
      Волшебная девочка скачать торрент в хорошем качестве
      Волшебная девочка смотреть онлайн бесплатно в хорошем качестве


      Вы не можете начинать темы
      Вы не можете отвечать на сообщения
      Вы не можете редактировать свои сообщения
      Вы не можете удалять свои сообщения
      Вы не можете голосовать в опросах
      Вы не можете прикреплять файлы к сообщениям
      Вы можете скачивать файлы