Ссылка на приватное зеркало всего за 1$. Внимание количество ограничено!!!

OK

1+1

iTunes

мы

OK

1

WEB-DLRip

Джокер

Пифагор

Ведьмак / The Witcher сериал

Лицензия

ПШазам

ОК

Оно 2

iTunes

30
pack

Вам бонус

ВАЖНО

!!Акция!!

Alien_RageХит недели

RePack

Resident Evil 21

ИГРА 18+

pack

RePack

jed

RePack

fifa19

RePack

Assassins Creed: Odyssey

RePack

NEED FOR SPEED™ PAYBACK

4 сезон

9 сезон

Бесстыжие 9 сезон

Все сериалы

все сериалы на PB.wtf

RePack

FAR CRY 5
  

Написать любовь на её руках / To Write Love on Her Arms (Нэйтан Франковски ) [2015, драма, биография, музыка, WEB-DLRip, Профессиональный (многоголосый)[iTunes] pb.wtf

Написать любовь на её руках через торрент pb.wtf

Размер: 1.37 GB | Добавлен: 4 года 10 мес. назад | Торрент скачан:337 раз
Скачать  

15-03-2015 20:21 Написать любовь на её руках Скачать торрент  


Написать любовь на её руках / To Write Love on Her Arms


ИНФОРМАЦИЯ:
Год выпуска:2015
Страна: США
Жанр: драма, биография, музыка
Продолжительность: 01:42:25
Перевод: Профессиональный (многоголосый)[iTunes]
Режиссер: Нэйтан Франковски

В Ролях:


Кэт Деннингс (Renee Yohe), Чад Майкл Мюррэй (Jamie Tworkowski), Руперт Френд (David McKenna), Марк Сауль (Dylan), Джулиана Харкви (Jessie), Дрейтон Болл (Young Dylan), Тиффани Бэнкс (Student), Кейли Боф (Observer), Брэд Бенедикт (Beautiful Man), Рас Блэквелл (Conrad Willard), Корбин Блю (Mackey), Саманта Кастро (Young Jessie)

ОПИСАНИЕ:
Фильм рассказывает о девятнадцатилетней девушке по имени Рени, которая всегда любила сказки: ее идеалы - это принцессы, герои и вечно-счастливый конец. Но жизнь Рени больше похожа на страшную сказку: она борется с наркозависимостью, от которой страдает, а так же с депрессией и членовредительством. В творческой смеси художественной фантазии и суровой реальности, фильм показывает мужество и преодоление всех препятствий в жизни Рени.

  • Мировая премьера:11 марта 2012

    ТЕХ.ДАННЫЕ:
    Качество: WEB-DLRip
    Формат: AVI
    Видео кодек: XviD
    Аудио кодек: AC3
    Видео: XviD, 720x304 (2.35:1), 1516 kbps, 23,976 fps, 0,275 bpp
    Аудио: AC3 / 5.1 / 48 kHz / 384 kbps / 16 bit



    Код:

    General
    Complete name                            : D:\Торенты\To.Write.Love.on.Her.Arms.2015.P.WEB-DLRip.1400Mb.avi
    Format                                   : AVI
    Format/Info                              : Audio Video Interleave
    File size                                : 1.37 GiB
    Duration                                 : 1h 42mn
    Overall bit rate                         : 1 909 Kbps
    Writing application                      : VirtualDubMod 1.5.10.2 (build 2540/release)
    Writing library                          : VirtualDubMod build 2540/release

    Video
    ID                                       : 0
    Format                                   : MPEG-4 Visual
    Format profile                           : Advanced Simple@L5
    Format settings, BVOP                    : 2
    Format settings, QPel                    : No
    Format settings, GMC                     : No warppoints
    Format settings, Matrix                  : Default (MPEG)
    Codec ID                                 : XVID
    Codec ID/Hint                            : XviD
    Duration                                 : 1h 42mn
    Bit rate                                 : 1516 Kbps
    Width                                    : 720 pixels
    Height                                   : 304 pixels
    Display aspect ratio                     : 2.35:1
    Frame rate                               : 23.976 fps
    Color space                              : YUV
    Chroma subsampling                       : 4:2:0
    Bit depth                                : 8 bits
    Scan type                                : Progressive
    Compression mode                         : Lossy
    Bits/(Pixel*Frame)                       : 0.275
    Stream size                              : 1.03 GiB (75%)
    Writing library                          : XviD 1.2.1 (UTC 2008-12-04)

    Audio
    ID                                       : 1
    Format                                   : AC-3
    Format/Info                              : Audio Coding 3
    Mode extension                           : CM (complete main)
    Codec ID                                 : 2000
    Duration                                 : 1h 42mn
    Bit rate mode                            : Constant
    Bit rate                                 : 384 Kbps
    Channel(s)                               : 6 channels
    Channel positions                        : Front: L C R, Side: L R, LFE
    Sampling rate                            : 48.0 KHz
    Bit depth                                : 16 bits
    Compression mode                         : Lossy
    Stream size                              : 281 MiB (20%)
    Alignment                                : Split accross interleaves

    Скриншоты:


    © Оформление by Ворон
    pb.wtf



  • Скачать Написать любовь на её руках через торрент http://pic.kartinco.top/images/6/ordi9.jpg Скачать фильм Написать любовь на её руках через торрент бесплантно в хорошем качестве Е:Фильм рассказывает о девятнадцатилетней девушке по имени Рени, которая всегда любила сказки: ее идеалы - это принцессы, герои и ... 10 10 6
    Торрент: Зарегистрирован [2015-03-15 20:21] · скачан: 337 раз
    Статус: √ проверено
    Размер: 1.37 GB
    Как cкачать? Как скачать Написать любовь на её руках через торрент | qTorrent

    % Раздел Тема Автор DL S | L
    Фильмы (WEB-DL 720p, 1080p) [ 2.84 GB ] Написать любовь на её руках / To Write Love on Her Arms [2015 биография музыка WEB-DL 720p Ворон Скачать
    1 | 0

    28-11-2019 20:33  

    Отключить всю рекламу на сайте

      Дорогой пользователь! Огромная просьба, поблагодарите релизера, оцените раздачу и оставьте свои комментарий, если Вы скачали Написать любовь на её руках через торрент бесплатно! Внесите свою лепту в развитие PiratBit!
      Комментировать посты могут только пользователи прошедшие не сложную регистрацию
      Показать сообщения:    

      Написать любовь на её руках через торрент
      Скачать бесплатно Написать любовь на её руках
      Написать любовь на её руках скачать торрент
      Написать любовь на её руках смотреть онлайн
      Cкачать фильм Написать любовь на её руках бесплатно
      Написать любовь на её руках скачать торрент в хорошем качестве
      Написать любовь на её руках смотреть онлайн бесплатно в хорошем качестве


      Вы не можете начинать темы
      Вы не можете отвечать на сообщения
      Вы не можете редактировать свои сообщения
      Вы не можете удалять свои сообщения
      Вы не можете голосовать в опросах
      Вы не можете прикреплять файлы к сообщениям
      Вы можете скачивать файлы