Ссылка на приватное зеркало всего за 1$. Внимание количество ограничено!!!

iTunes

iTunes

iTunes

1

iTunes

iTunes

iTunes

iTunes

iTunes

30
pack

$ от Little Big

ВАЖНО

!!Акция!!

Alien_RageХит недели

RePack

Resident Evil 21

ИГРА 18+

pack

RePack

jed

!!Акция!!

Alien_Rage

RePack

fifa19

RePack

Assassins Creed: Odyssey

RePack

NEED FOR SPEED™ PAYBACK

4 сезон

9 сезон

Бесстыжие 9 сезон

Все сериалы

все сериалы на PB.wtf

RePack

FAR CRY 5
  

Написать любовь на её руках / To Write Love on Her Arms (Нэйтан Франковски ) [2015, драма, биография, музыка, WEB-DL 720p, Профессиональный (многоголосый) [iTunes] pb.wtf

Написать любовь на её руках через торрент pb.wtf

Размер: 2.84 GB | Добавлен: 5 лет 3 мес. назад | Торрент скачан:58 раз
Скачать  

15-03-2015 20:27 Написать любовь на её руках Скачать торрент  


Написать любовь на её руках / To Write Love on Her Arms


ИНФОРМАЦИЯ:
Год выпуска:2015
Страна: США
Жанр: драма, биография, музыка
Продолжительность: 01:42:25
Перевод: Профессиональный (многоголосый) [iTunes]
Режиссер: Нэйтан Франковски

В Ролях:


Кэт Деннингс (Renee Yohe), Чад Майкл Мюррэй (Jamie Tworkowski), Руперт Френд (David McKenna), Марк Сауль (Dylan), Джулиана Харкви (Jessie), Дрейтон Болл (Young Dylan), Тиффани Бэнкс (Student), Кейли Боф (Observer), Брэд Бенедикт (Beautiful Man), Рас Блэквелл (Conrad Willard), Корбин Блю (Mackey), Саманта Кастро (Young Jessie)

ОПИСАНИЕ:
Фильм рассказывает о девятнадцатилетней девушке по имени Рени, которая всегда любила сказки: ее идеалы - это принцессы, герои и вечно-счастливый конец. Но жизнь Рени больше похожа на страшную сказку: она борется с наркозависимостью, от которой страдает, а так же с депрессией и членовредительством. В творческой смеси художественной фантазии и суровой реальности, фильм показывает мужество и преодоление всех препятствий в жизни Рени.

  • Мировая премьера:11 марта 2012

    ТЕХ.ДАННЫЕ:
    Качество: WEB-DL 720p
    Формат: MKV
    Видео кодек: AVC
    Аудио кодек: AC3
    Видео: AVC, 1280x528 (2.40:1), 3124 kbps, 23,976 fps, 0,193 bpp
    Аудио №1: AC3 / 5.1 / 48 kHz / 384 kbps / 16 bit
    Аудио №2: английский / AC3 / 5.1 / 48 kHz / 384 kbps / 16 bit
    Навигация по главам: есть



    Код:

    General
    Unique ID                                : 195368420451097948747833815183726004774 (0x92FA96D02370A91E8F2FDAAB7C9CCA26)
    Complete name                            : D:\Торенты\To.Write.Love.on.Her.Arms.2015.P.720p.WEB-DL.DD5.1.H264.mkv
    Format                                   : Matroska
    Format version                           : Version 2
    File size                                : 2.84 GiB
    Duration                                 : 1h 42mn
    Overall bit rate                         : 3 971 Kbps
    Encoded date                             : UTC 2015-03-15 18:19:53
    Writing application                      : mkvmerge v7.7.0 ('Six Voices') 64bit built on Feb 28 2015 23:39:33
    Writing library                          : libebml v1.3.1 + libmatroska v1.4.2

    Video
    ID                                       : 1
    Format                                   : AVC
    Format/Info                              : Advanced Video Codec
    Format profile                           : High@L4.1
    Format settings, CABAC                   : Yes
    Format settings, ReFrames                : 4 frames
    Codec ID                                 : V_MPEG4/ISO/AVC
    Duration                                 : 1h 42mn
    Bit rate                                 : 3 124 Kbps
    Nominal bit rate                         : 3 300 Kbps
    Width                                    : 1 280 pixels
    Height                                   : 528 pixels
    Display aspect ratio                     : 2.40:1
    Frame rate mode                          : Variable
    Frame rate                               : 23.976 fps
    Color space                              : YUV
    Chroma subsampling                       : 4:2:0
    Bit depth                                : 8 bits
    Scan type                                : Progressive
    Bits/(Pixel*Frame)                       : 0.193
    Stream size                              : 2.24 GiB (79%)
    Writing library                          : x264 core 130 r2273 b3065e6
    Encoding settings                        : cabac=1 / ref=1 / deblock=1:0:0 / analyse=0x3:0x113 / me=hex / subme=2 / psy=1 / psy_rd=1.00:0.00 / mixed_ref=0 / me_range=16 / chroma_me=1 / trellis=0 / 8x8dct=1 / cqm=0 / deadzone=21,11 / fast_pskip=1 / chroma_qp_offset=0 / threads=12 / lookahead_threads=4 / sliced_threads=0 / nr=0 / decimate=1 / interlaced=0 / bluray_compat=0 / constrained_intra=0 / bframes=3 / b_pyramid=2 / b_adapt=1 / b_bias=0 / direct=1 / weightb=1 / open_gop=0 / weightp=1 / keyint=240 / keyint_min=24 / scenecut=40 / intra_refresh=0 / rc_lookahead=10 / rc=abr / mbtree=1 / bitrate=3300 / ratetol=1.0 / qcomp=0.60 / qpmin=0 / qpmax=69 / qpstep=4 / vbv_maxrate=62500 / vbv_bufsize=78125 / nal_hrd=none / ip_ratio=1.40 / aq=1:1.00
    Language                                 : English
    Default                                  : Yes
    Forced                                   : No
    Color primaries                          : BT.709-5, BT.1361, IEC 61966-2-4, SMPTE RP177
    Transfer characteristics                 : BT.709-5, BT.1361
    Matrix coefficients                      : BT.709-5, BT.1361, IEC 61966-2-4 709, SMPTE RP177

    Audio #1
    ID                                       : 2
    Format                                   : AC-3
    Format/Info                              : Audio Coding 3
    Mode extension                           : CM (complete main)
    Codec ID                                 : A_AC3
    Duration                                 : 1h 42mn
    Bit rate mode                            : Constant
    Bit rate                                 : 384 Kbps
    Channel(s)                               : 6 channels
    Channel positions                        : Front: L C R, Side: L R, LFE
    Sampling rate                            : 48.0 KHz
    Bit depth                                : 16 bits
    Compression mode                         : Lossy
    Stream size                              : 281 MiB (10%)
    Default                                  : Yes
    Forced                                   : No

    Audio #2
    ID                                       : 3
    Format                                   : AC-3
    Format/Info                              : Audio Coding 3
    Mode extension                           : CM (complete main)
    Codec ID                                 : A_AC3
    Duration                                 : 1h 42mn
    Bit rate mode                            : Constant
    Bit rate                                 : 384 Kbps
    Channel(s)                               : 6 channels
    Channel positions                        : Front: L C R, Side: L R, LFE
    Sampling rate                            : 48.0 KHz
    Bit depth                                : 16 bits
    Compression mode                         : Lossy
    Stream size                              : 281 MiB (10%)
    Language                                 : English
    Default                                  : No
    Forced                                   : No

    Menu
    00:00:00.000                             : en:Chapter 1
    00:04:38.070                             : en:Chapter 2
    00:11:37.072                             : en:Chapter 3
    00:19:39.012                             : en:Chapter 4
    00:32:27.072                             : en:Chapter 5
    00:34:53.010                             : en:Chapter 6
    00:41:09.011                             : en:Chapter 7
    00:47:52.080                             : en:Chapter 8
    00:52:56.051                             : en:Chapter 9
    00:58:18.040                             : en:Chapter 10
    01:05:38.063                             : en:Chapter 11
    01:11:43.011                             : en:Chapter 12
    01:15:49.007                             : en:Chapter 13
    01:21:50.077                             : en:Chapter 14
    01:28:00.030                             : en:Chapter 15
    01:31:26.069                             : en:Chapter 16

    Скриншоты:


    © Оформление by Ворон
    pb.wtf



  • Скачать Написать любовь на её руках через торрент http://pic.kartinco.top/images/6/ordi9.jpg Скачать фильм Написать любовь на её руках через торрент бесплантно в хорошем качестве Е:Фильм рассказывает о девятнадцатилетней девушке по имени Рени, которая всегда любила сказки: ее идеалы - это принцессы, герои и ... 10 10 5
    Торрент: Зарегистрирован [2015-03-15 20:27] · скачан: 58 раз
    Статус: √ проверено
    Размер: 2.84 GB
    Как cкачать? Как скачать Написать любовь на её руках через торрент | qTorrent

    % Раздел Тема Автор DL S | L
    Фильмы 2015 [DVDrip, WEB-DLRip, HDrip] [ 1.37 GB ] Написать любовь на её руках / To Write Love on Her Arms [2015 биография музыка WEB-DLRip Ворон Скачать
    1 | 0

    28-11-2019 20:33  

    Отключить всю рекламу на сайте

      Дорогой пользователь! Огромная просьба, поблагодарите релизера, оцените раздачу и оставьте свои комментарий, если Вы скачали Написать любовь на её руках через торрент бесплатно! Внесите свою лепту в развитие PiratBit!
      Комментировать посты могут только пользователи прошедшие не сложную регистрацию
      Показать сообщения:    

      Написать любовь на её руках через торрент
      Скачать бесплатно Написать любовь на её руках
      Написать любовь на её руках скачать торрент
      Написать любовь на её руках смотреть онлайн
      Cкачать фильм Написать любовь на её руках бесплатно
      Написать любовь на её руках скачать торрент в хорошем качестве
      Написать любовь на её руках смотреть онлайн бесплатно в хорошем качестве


      Вы не можете начинать темы
      Вы не можете отвечать на сообщения
      Вы не можете редактировать свои сообщения
      Вы не можете удалять свои сообщения
      Вы не можете голосовать в опросах
      Вы не можете прикреплять файлы к сообщениям
      Вы можете скачивать файлы