2 сезон

iTunes

1 сезон

1

iTunes

iTunes

iTunes

1 сезон

RePack

30

ИГРА 18+

pack

ВАЖНО

!!Акция!!

Alien_RageХит недели

RePack

MK11
pack

Забери бонус

RePack

jed

!!Акция!!

Alien_Rage

RePack

fifa19

RePack

Assassins Creed: Odyssey

RePack

NEED FOR SPEED™ PAYBACK

4 сезон

9 сезон

Бесстыжие 9 сезон

Все сериалы

все сериалы на PB.wtf

RePack

FAR CRY 5
  

Подцеплен по-крупному / 52 Pick-Up (Джон Франкенхаймер) [1986, триллер, криминал, BDRip 720p] AVO pb.wtf

Подцеплен по-крупному через торрент pb.wtf

Размер: 4.08 GB | Добавлен: 5 лет 7 мес. назад | Торрент скачан:11 раз
Скачать  

18-03-2015 08:03 Подцеплен по-крупному Скачать торрент  

Подцеплен по-крупному / 52 Pick-Up

Год выпуска: 1986
Страна: США
Жанр: триллер, криминал
Продолжительность: 01:50:19
Перевод: авторский
Субтитры: английские

Режиссёр: Джон Франкенхаймер

В ролях: Рой Шайдер, Энн-Маргрет, Вэнити, Джон Гловер, Келли Престон, Роберт Требор, Лонни Чэпмен, Даг МакКлёр, Кларенс Уильямс III, Арлин Миллер

Описание: Гарри Митчелл после 23 лет брака изменяет своей жене Барбаре, баллотирующейся в городской совет. Когда трое вооружённых людей в масках шантажируют его, показывая компрометирующую видеокассету, на которой он заснят со своей пассией, и вымогают кругленькую сумму, он не может обратиться в полицию — боится испортить жене карьеру. Дальше хуже: за невыполнение своих требований шантажисты убивают несчастную девушку и, засняв это на видео, показывают Митчеллу. Тут уж бывший майор начинает собственную игру... Фильм снят по одноимённому роману Элмора Леонарда.



Качество: BDRip 720p Сравнение с исходником
Формат: MKV
Видео кодек: H.264
Аудио кодек: AC3
Видео: 4832 Кбит/с, 1280x694, 23.976 кадра/с, 0.227 bpp
Аудио 1: русский, AC3, 160 kbps, 2 ch, 48 kHz [авторский, Алексей Михалёв]
Аудио 2: английский, AC3, 192 kbps, 2 ch, 48 kHz [оригинал]

Имеются неименованные главы/чаптеры.
Сатурн, 1987 год
Номинации (1):
Лучшая актриса второго плана (Вэнити)
frame I:1024 Avg QP:16.68 size: 79780
frame P:29763 Avg QP:17.77 size: 43925
frame B:127893 Avg QP:19.77 size: 21068

Общее
Уникальный идентификатор : 214412667011101313187558840299377878550 (0xA14E60A96D7B223C90160B9E4F436616)
Полное имя : D:VideoPodceplen po-krupnomu.1986.BDRip.720p.mkv
Формат : Matroska
Версия формата : Version 4 / Version 2
Размер файла : 4,08 Гбайт
Продолжительность : 1 ч. 50 м.
Общий поток : 5290 Кбит/сек
Дата кодирования : UTC 2015-03-16 06:02:43
Программа кодирования : mkvmerge v7.7.0 ('Six Voices') 64bit built on Feb 28 2015 23:39:33
Библиотека кодирования : libebml v1.3.1 + libmatroska v1.4.2
_STATISTICS_WRITING_APP : mkvmerge v7.7.0 ('Six Voices') 64bit built on Feb 28 2015 23:39:33
_STATISTICS_WRITING_DATE_UTC : 2015-03-16 06:02:43
_STATISTICS_TAGS : BPS DURATION NUMBER_OF_FRAMES NUMBER_OF_BYTES
DURATION : 01:42:03.289000000
NUMBER_OF_FRAMES : 1209
NUMBER_OF_BYTES : 54531

Видео
Идентификатор : 1
Формат : AVC
Формат/Информация : Advanced Video Codec
Профиль формата : High@L4.1
Параметр CABAC формата : Да
Параметр ReFrames формата : 9 кадров
Идентификатор кодека : V_MPEG4/ISO/AVC
Продолжительность : 1 ч. 50 м.
Битрейт : 4832 Кбит/сек
Ширина : 1280 пикселей
Высота : 694 пикселя
Соотношение сторон : 1,85:1
Режим частоты кадров : Постоянный
Частота кадров : 23,976 кадра/сек
Цветовое пространство : YUV
Субдискретизация насыщенности : 4:2:0
Битовая глубина : 8 бит
Тип развёртки : Прогрессивная
Бит/(Пиксели*Кадры) : 0.227
Размер потока : 3,72 Гбайт (91%)
Заголовок : BDRip -- STarankov
Библиотека кодирования : x264 core 142 r2431 ac76440
Настройки программы : cabac=1 / ref=9 / deblock=1:-2:-2 / analyse=0x3:0x113 / me=umh / subme=10 / psy=1 / psy_rd=1.00:0.15 / mixed_ref=1 / me_range=32 / chroma_me=1 / trellis=2 / 8x8dct=1 / cqm=0 / deadzone=21,11 / fast_pskip=1 / chroma_qp_offset=-3 / threads=6 / lookahead_threads=1 / sliced_threads=0 / nr=0 / decimate=1 / interlaced=0 / bluray_compat=0 / constrained_intra=0 / bframes=8 / b_pyramid=2 / b_adapt=2 / b_bias=0 / direct=3 / weightb=1 / open_gop=0 / weightp=2 / keyint=230 / keyint_min=23 / scenecut=40 / intra_refresh=0 / rc_lookahead=40 / rc=crf / mbtree=0 / crf=19.0 / qcomp=0.60 / qpmin=0 / qpmax=69 / qpstep=4 / vbv_maxrate=40000 / vbv_bufsize=50000 / crf_max=0.0 / nal_hrd=none / filler=0 / ip_ratio=1.40 / pb_ratio=1.30 / aq=1:1.00
Язык : English
Default : Да
Forced : Нет
DURATION : 01:50:18.279000000
NUMBER_OF_FRAMES : 158680
NUMBER_OF_BYTES : 4083485413
_STATISTICS_WRITING_APP : mkvmerge v7.7.0 ('Six Voices') 64bit built on Feb 28 2015 23:39:33
_STATISTICS_WRITING_DATE_UTC : 2015-03-16 06:02:43
_STATISTICS_TAGS : BPS DURATION NUMBER_OF_FRAMES NUMBER_OF_BYTES

Аудио #1
Идентификатор : 2
Формат : AC-3
Формат/Информация : Audio Coding 3
Расширение режима : CM (complete main)
Параметр Endianness формата : Big
Идентификатор кодека : A_AC3
Продолжительность : 1 ч. 50 м.
Вид битрейта : Постоянный
Битрейт : 160 Кбит/сек
Каналы : 2 канала
Расположение каналов : Front: L R
Частота : 48,0 КГц
Битовая глубина : 16 бит
Метод сжатия : С потерями
Размер потока : 126 Мбайт (3%)
Заголовок : AVO (Алексей Михалёв)
Язык : Russian
Default : Да
Forced : Нет

Аудио #2
Идентификатор : 3
Формат : AC-3
Формат/Информация : Audio Coding 3
Расширение режима : CM (complete main)
Параметр Endianness формата : Big
Идентификатор кодека : A_AC3
Продолжительность : 1 ч. 50 м.
Вид битрейта : Постоянный
Битрейт : 192 Кбит/сек
Каналы : 2 канала
Расположение каналов : Front: L R
Частота : 48,0 КГц
Битовая глубина : 16 бит
Метод сжатия : С потерями
Размер потока : 151 Мбайт (4%)
Заголовок : Original
Язык : English
Default : Нет
Forced : Нет

Текст
Идентификатор : 4
Формат : UTF-8
Идентификатор кодека : S_TEXT/UTF8
Идентификатор кодека/Информация : UTF-8 Plain Text
Заголовок : английские
Язык : English
Default : Нет
Forced : Нет

Меню
00:00:00.000 : :Chapter 01
00:18:04.009 : :Chapter 02
00:33:45.659 : :Chapter 03
00:47:29.983 : :Chapter 04
01:05:24.305 : :Chapter 05
01:19:20.682 : :Chapter 06
01:28:59.761 : :Chapter 07
01:39:06.576 : :Chapter 08
01:50:18.204 : :Chapter 09
pb.wtf



Скачать Подцеплен по-крупному через торрент http://i67.fastpic.ru/big/2015/0318/9c/e5a2e24fea3178db964c26a91bbf989c.jpg Скачать фильм Подцеплен по-крупному через торрент бесплантно в хорошем качестве Описание: Гарри Митчелл после 23 лет брака изменяет своей жене Барбаре, баллотирующейся в городской совет. Когда трое вооружённых людей в ... 7.8 10 4
Торрент: Зарегистрирован [2015-03-18 08:03] · скачан: 11 раз
Статус: √ проверено
Размер: 4.08 GB
Как cкачать? Как скачать Подцеплен по-крупному через торрент | qTorrent

% Раздел Тема Автор DL S | L
Фильмы до 2000 г. [ 2.43 GB ] Подцеплен по-крупному / 52 Pick-Up [1986 BDRip-AVC] AVO msltel Скачать
1 | 0

28-11-2019 20:33  

Отключить всю рекламу на сайте

    Дорогой пользователь! Огромная просьба, поблагодарите релизера, оцените раздачу и оставьте свои комментарий, если Вы скачали Подцеплен по-крупному через торрент бесплатно! Внесите свою лепту в развитие PiratBit!
    Комментировать посты могут только пользователи прошедшие не сложную регистрацию
    Показать сообщения:    

    Подцеплен по-крупному через торрент
    Скачать бесплатно Подцеплен по-крупному
    Подцеплен по-крупному скачать торрент
    Подцеплен по-крупному смотреть онлайн
    Cкачать фильм Подцеплен по-крупному бесплатно
    Подцеплен по-крупному скачать торрент в хорошем качестве
    Подцеплен по-крупному смотреть онлайн бесплатно в хорошем качестве


    Вы не можете начинать темы
    Вы не можете отвечать на сообщения
    Вы не можете редактировать свои сообщения
    Вы не можете удалять свои сообщения
    Вы не можете голосовать в опросах
    Вы не можете прикреплять файлы к сообщениям
    Вы можете скачивать файлы