Ссылка на приватное зеркало нашего сайта всего за 1$. Внимание количество ограничено!!!

2 сезон

iTunes

1 сезон

1

2 сезон

2 сезон

iTunes

1 сезон

RePack

30

Ultimate

ВАЖНО

ИГРА 18+

pack

RePack

MK11
pack

Забери бонус

RePack

jed

!!Акция!!

Alien_Rage

RePack

fifa19

RePack

Assassins Creed: Odyssey

RePack

NEED FOR SPEED™ PAYBACK

4 сезон

9 сезон

Бесстыжие 9 сезон

Все сериалы

все сериалы на PB.wtf

RePack

FAR CRY 5
  

Полдарк / Poldark / Сезон: 1 / Серии 1-8 из 8 (Эдвард Базалгетт / Edward Bazalgette, Уильям МакГрегор / William McGregor) [2015, Великобритания, Драма, костюмированный, WEB-DLRip] MVO [BaibaKo] pb.wtf

Полдарк через торрент pb.wtf

Размер: 6.02 GB | Добавлен: 5 лет 6 мес. назад | Торрент скачан:83 раза
Скачать  

18-03-2015 10:04 Полдарк Скачать торрент  

Полдарк / Poldark


  • Год выпуска: 2015
  • Страна: Великобритания
  • Жанр: Драма, костюмированный
  • Продолжительность: 00:58:37 (Серия)
  • Перевод: Профессиональный многоголосый закадровый [BaibaKo]

  • Режиссер: Эдвард Базалгетт / Edward Bazalgette, Уильям МакГрегор / William McGregor
  • В ролях:

    Эйдан Тернер (Ross Poldark), Элинор Томлинсон (Demelza), Хейда Рид (Elizabeth Chenoweth), Кайл Соллер (Francis Poldark (2015)), Руби Бенталл (Verity Poldark), Джек Фартинг (George Warleggan (2015)), Crystal Leaity (Margaret Vosper), Gracee O'Brien (Jinny Martin), Харриет Баллард (Ruth Teague), Ричард Хоуп (Harris Pascoe), Сабрина Бартлетт (Keren Smith), Тим Сайферт (Redcoat Soldier)

  • Описание:
    Росс Полдарк возвращается домой с войны, надеясь на спокойную и счастливую жизнь в кругу семьи, и обнаруживает, что отец умер, домом управляют слуги-пьяницы, а невеста Элизабет, уверенная, что он погиб, обручилась с его кузеном.
  • Рейтинг:



  • Качество: WEB-DLRip
  • Формат: :MPEG-4
  • Видео кодек: AVC
  • Аудио кодек: AAC (LC)
  • Видео: 1536 Кбит/сек, 720*400 (16:9), в 25,000 кадров/сек, AVC
  • Аудио №1: Русский 163 Кбит/сек, 48,0 КГц, 2 канала, AAC (LC)
  • Аудио №2: Английский 163 Кбит/сек, 48,0 КГц, 2 канала, AAC (LC)
  • Релиз от: GEKADOL

    Код:

    Внимание! Раздача ведётся путём добавления новых серий; при каждом добавлении создаётся новый торрент. Чтобы начать докачку новой серии, пользователям необходимо сделать следующее:
    (1) остановить скачивание,
    (2) удалить старый торрент у себя из клиента (старые серии удалять не надо),
    (3) скачать новый торрент и запустить его у себя в клиенте вместо старого, при этом указать клиенту путь в старую папку куда и должно происходить скачивание новых серий.
    Ваш клиент при этом должен произвести хеширование (проверку) старой папки (если не производит сам - помогите ему сделать это), и будет докачивать только те серии которых у вас ещё нет. Старые серии при этом не удаляются, а продолжают раздаваться!
    Eсли вы уже удалили старые серии, то предотвратить повторную закачку старых серий можно, отжав галочку в соответсвующих местах при запуске нового торрента. По возможности, желательно не удалять старые серии как можно дольше чтобы релизёр не столько продолжал раздавать старые серии, а смог сконцентрироваться на новых.


    Код:

    Общее
    Полное имя                               : D:\Фильмы\Полдарк mp4\Poldark.s01e01.WEB-DLRip.x264.Rus.Eng.BaibaKo.tv.mp4
    Формат                                   : MPEG-4
    Профиль формата                          : Base Media
    Идентификатор кодека                     : isom
    Размер файла                             : 782 Мбайт
    Продолжительность                        : 58 м.
    Режим общего битрейта                    : Переменный
    Общий поток                              : 1866 Кбит/сек
    Дата кодирования                         : UTC 2015-03-12 13:00:01
    Дата пометки                             : UTC 2015-03-12 13:00:01

    Видео
    Идентификатор                            : 1
    Формат                                   : AVC
    Формат/Информация                        : Advanced Video Codec
    Профиль формата                          : Baseline@L3.0
    Параметр CABAC формата                   : Нет
    Параметр ReFrames формата                : 3 кадра
    Идентификатор кодека                     : avc1
    Идентификатор кодека/Информация          : Advanced Video Coding
    Продолжительность                        : 58 м.
    Битрейт                                  : 1536 Кбит/сек
    Максимальный битрейт                     : 8593 Кбит/сек
    Ширина                                   : 720 пикселей
    Высота                                   : 400 пикселей
    Соотношение сторон                       : 16:9
    Режим частоты кадров                     : Постоянный
    Частота кадров                           : 25,000 кадров/сек
    Цветовое пространство                    : YUV
    Субдискретизация насыщенности            : 4:2:0
    Битовая глубина                          : 8 бит
    Тип развёртки                            : Прогрессивная
    Бит/(Пиксели*Кадры)                      : 0.213
    Размер потока                            : 644 Мбайт (82%)
    Библиотека кодирования                   : x264 core 142 r2479 dd79a61
    Настройки программы                      : cabac=0 / ref=3 / deblock=1:0:0 / analyse=0x1:0x111 / me=hex / subme=7 / psy=1 / psy_rd=1.00:0.00 / mixed_ref=1 / me_range=16 / chroma_me=1 / trellis=1 / 8x8dct=0 / cqm=0 / deadzone=21,11 / fast_pskip=1 / chroma_qp_offset=-2 / threads=12 / lookahead_threads=2 / sliced_threads=0 / nr=0 / decimate=1 / interlaced=0 / bluray_compat=0 / constrained_intra=0 / bframes=0 / weightp=0 / keyint=250 / keyint_min=25 / scenecut=40 / intra_refresh=0 / rc_lookahead=40 / rc=2pass / mbtree=1 / bitrate=1536 / ratetol=1.0 / qcomp=0.60 / qpmin=0 / qpmax=69 / qpstep=4 / cplxblur=20.0 / qblur=0.5 / vbv_maxrate=10000 / vbv_bufsize=10000 / nal_hrd=none / filler=0 / ip_ratio=1.40 / aq=1:1.00
    Дата пометки                             : UTC 2015-03-12 13:00:24
    Основные цвета                           : BT.709
    Характеристики трансфера                 : BT.709
    Коэффициенты матрицы                     : BT.709

    Аудио #1
    Идентификатор                            : 2
    Формат                                   : AAC
    Формат/Информация                        : Advanced Audio Codec
    Профиль формата                          : LC
    Идентификатор кодека                     : 40
    Продолжительность                        : 58 м.
    Вид битрейта                             : Переменный
    Битрейт                                  : 163 Кбит/сек
    Максимальный битрейт                     : 212 Кбит/сек
    Каналы                                   : 2 канала
    Расположение каналов                     : Front: L R
    Частота                                  : 48,0 КГц
    Метод сжатия                             : С потерями
    Задержка видео                           : -20 мс.
    Размер потока                            : 68,3 Мбайт (9%)
    Язык                                     : Russian
    Дата кодирования                         : UTC 2015-03-12 13:00:14
    Дата пометки                             : UTC 2015-03-12 13:00:24

    Аудио #2
    Идентификатор                            : 3
    Формат                                   : AAC
    Формат/Информация                        : Advanced Audio Codec
    Профиль формата                          : LC
    Идентификатор кодека                     : 40
    Продолжительность                        : 58 м.
    Вид битрейта                             : Переменный
    Битрейт                                  : 163 Кбит/сек
    Максимальный битрейт                     : 237 Кбит/сек
    Каналы                                   : 2 канала
    Расположение каналов                     : Front: L R
    Частота                                  : 48,0 КГц
    Метод сжатия                             : С потерями
    Задержка видео                           : -20 мс.
    Размер потока                            : 68,2 Мбайт (9%)
    Язык                                     : English
    Дата кодирования                         : UTC 2015-03-12 13:00:18
    Дата пометки                             : UTC 2015-03-12 13:00:24




    Скриншоты:
    скриншот   скриншот   скриншот   скриншот   скриншот  
    скриншот  

    Раздача ведётся путём добавления новых серий. Добавлена 8 серия (30.05.2015).Просьба перекачать торрент файл.

    pb.wtf



  • Скачать Полдарк через торрент http://i2.imageban.ru/out/2015/03/18/ed7dfc06ee79d793a9cf0296c0a517b5.jpg Скачать фильм Полдарк через торрент бесплантно в хорошем качестве Описание: Росс Полдарк возвращается домой с войны, надеясь на спокойную и счастливую жизнь в кругу семьи, и обнаруживает, что отец умер, ... 9.1 10 14
    Info! Золотая раздача, скачанное не засчитывается.
    Торрент: Зарегистрирован [2015-05-30 01:35] · скачан: 83 раз
    Статус: √ проверено
    Размер: 6.02 GB
    Как cкачать? Как скачать Полдарк через торрент | qTorrent



    Последний раз редактировалось: GEKADOL (2015-05-30 01:35), всего редактировалось 8 раз(а)

    28-11-2019 20:33  

    Отключить всю рекламу на сайте

    31-03-2015 18:42 Полдарк Скачать торрент  

    Сериал бомба!
    Просьба написать список выхода новых серий!pb.wtf



    09-04-2015 01:50 Полдарк Скачать торрент  

    pskden писал(а):

    Сериал бомба!
    Просьба написать список выхода новых серий!

    1 сезон 8 серия «Episode 8» 26 Апр 2015
    1 сезон 7 серия «Episode 7» 19 Апр 2015
    1 сезон 6 серия «Episode 6» 12 Апр 2015
    1 сезон 5 серия «Episode 5» 5 Апр 2015
    1 сезон 4 серия «Episode 4» 29 Мар 2015
    1 сезон 3 серия «Episode 3» 22 Мар 2015
    1 сезон 2 серия «Episode 2» 15 Мар 2015
    1 сезон 1 серия «Episode 1» 8 Мар 2015

    Плюс озвучка!!

    pb.wtf



    10-04-2015 08:29 Полдарк Скачать торрент  

    Супер!!!pb.wtf



    23-04-2015 19:42 Полдарк Скачать торрент  

    за одну только песню Демельзы в 4 серии 10 из 10! РАздающему громадное! В коллекцию! От матушки тоже спасибо! Продолжение где? 2 сезона уже!pb.wtf





    Последний раз редактировалось: zedsdead (2015-04-29 07:23), всего редактировалось 2 раз(а)

    29-04-2015 03:17 Полдарк Скачать торрент  

    сериал не зацепил.pb.wtf



    11-12-2017 13:13 Полдарк Скачать торрент  

    Эх, у меня так на "Подключении к пирам" всё и висит. А посмотреть-то охота.pb.wtf



      Дорогой пользователь! Огромная просьба, поблагодарите релизера, оцените раздачу и оставьте свои комментарий, если Вы скачали Полдарк через торрент бесплатно! Внесите свою лепту в развитие PiratBit!
      Комментировать посты могут только пользователи прошедшие не сложную регистрацию
      Показать сообщения:    

      Полдарк через торрент
      Скачать бесплатно Полдарк
      Полдарк скачать торрент
      Полдарк смотреть онлайн
      Cкачать фильм Полдарк бесплатно
      Полдарк скачать торрент в хорошем качестве
      Полдарк смотреть онлайн бесплатно в хорошем качестве


      Вы не можете начинать темы
      Вы не можете отвечать на сообщения
      Вы не можете редактировать свои сообщения
      Вы не можете удалять свои сообщения
      Вы не можете голосовать в опросах
      Вы не можете прикреплять файлы к сообщениям
      Вы можете скачивать файлы