Ссылка на приватное зеркало нашего сайта всего за 1$. Внимание количество ограничено!!!

2 сезон

iTunes

1 сезон

1

iTunes

iTunes

iTunes

1 сезон

RePack

30

ИГРА 18+

pack

ВАЖНО

!!Акция!!

Alien_RageХит недели

RePack

MK11
pack

Забери бонус

RePack

jed

!!Акция!!

Alien_Rage

RePack

fifa19

RePack

Assassins Creed: Odyssey

RePack

NEED FOR SPEED™ PAYBACK

4 сезон

9 сезон

Бесстыжие 9 сезон

Все сериалы

все сериалы на PB.wtf

RePack

FAR CRY 5
  

Под огнём / Under Fire (Роджер Споттисвуд) [1983, драма, военный, BDRip 720p] DUB, DVO, VO pb.wtf

Под огнём через торрент pb.wtf

Размер: 6.23 GB | Добавлен: 5 лет 7 мес. назад | Торрент скачан:11 раз
Скачать  

18-03-2015 10:50 Под огнём Скачать торрент  

Под огнём / Under Fire

Год выпуска: 1983
Страна: Мексика, США
Жанр: драма, военный
Продолжительность: 02:08:15
Перевод: дублированный, профессиональный двухголосый, любительский одноголосый
Субтитры: английские (для слабослышащих)

Режиссёр: Роджер Споттисвуд

В ролях: Ник Нолти, Эд Харрис, Джин Хэкмен, Джоанна Кэссиди, Жан-Луи Трентиньян, Альма Мартинез, Холли Пэланс, Хэмилтон Кэмп, Ричард Мэсур, Дженни Гэго, Элпидия Каррильо, Рауль Пикассо, Освальдо Дория, Фернандо Элизондо, Хорхе Сантойо, Люсина Рохас, Рауль Гарсия, Виктор Алькосер, Эрик Ф. Валдез, Энрике Лусеро, Жерардо Альбарран, Элой Касадос, Карлос Романо, Рене Энрикес, Хосе Кампос мл., Халим Кэмп

Описание: Расселл Прайс воспринимает революцию в Никарагуа через камеру, чтобы дистанцироваться от реальности. В Манагуа его эмоциональная отрешённость от происходящего подвергается испытанию, когда он видит резкий контраст между жизнью сторонников президента Сомосы и тем, что приходится переносить всем остальным в стране...



Качество: BDRip 720p Сравнение с исходником
Формат: MKV
Видео кодек: H.264
Аудио кодек: AC3
Видео: 5987 Кбит/с, 1280x694, 23.976 кадра/с, 0.281 bpp
Аудио 1: русский, AC3, 192 kbps, 2 ch, 48 kHz [дублированный]
Аудио 2: русский, AC3, 256 kbps, 2 ch, 48 kHz [профессиональный двухголосый]
Аудио 3: русский, AC3, 192 kbps, 2 ch, 48 kHz [любительский одноголосый, Герасимов]
Аудио 4: английский, AC3, 192 kbps, 2 ch, 48 kHz [оригинал]

Имеются неименованные главы/чаптеры.
Британская академия, 1985 год
Номинации (1):
Лучший монтаж

Оскар, 1984 год
Номинации (1):
Лучший оригинальный саундтрек

Золотой глобус, 1984 год
Номинации (2):
Лучшая мужская роль второго плана (Джин Хэкмен)
Лучший саундтрек
frame I:1525 Avg QP:20.85 size: 99994
frame P:32107 Avg QP:21.94 size: 55422
frame B:150808 Avg QP:23.79 size: 26247

Общее
Уникальный идентификатор : 176185307016566917033687436046015125124 (0x848C0E4C79C71137BD1FD4B54D8BD684)
Полное имя : D:VideoPod ognem.1983.BDRip.720p.mkv
Формат : Matroska
Версия формата : Version 4 / Version 2
Размер файла : 6,23 Гбайт
Продолжительность : 2 ч. 8 м.
Общий поток : 6957 Кбит/сек
Дата кодирования : UTC 2015-03-17 07:11:17
Программа кодирования : mkvmerge v7.7.0 ('Six Voices') 64bit built on Feb 28 2015 23:39:33
Библиотека кодирования : libebml v1.3.1 + libmatroska v1.4.2
_STATISTICS_WRITING_APP : mkvmerge v7.7.0 ('Six Voices') 64bit built on Feb 28 2015 23:39:33
_STATISTICS_WRITING_DATE_UTC : 2015-03-17 07:11:17
_STATISTICS_TAGS : BPS DURATION NUMBER_OF_FRAMES NUMBER_OF_BYTES
DURATION : 02:02:39.268000000
NUMBER_OF_FRAMES : 1150
NUMBER_OF_BYTES : 37767

Видео
Идентификатор : 1
Формат : AVC
Формат/Информация : Advanced Video Codec
Профиль формата : High@L4.1
Параметр CABAC формата : Да
Параметр ReFrames формата : 9 кадров
Идентификатор кодека : V_MPEG4/ISO/AVC
Продолжительность : 2 ч. 8 м.
Битрейт : 5987 Кбит/сек
Ширина : 1280 пикселей
Высота : 694 пикселя
Соотношение сторон : 1,85:1
Режим частоты кадров : Постоянный
Частота кадров : 23,976 кадра/сек
Цветовое пространство : YUV
Субдискретизация насыщенности : 4:2:0
Битовая глубина : 8 бит
Тип развёртки : Прогрессивная
Бит/(Пиксели*Кадры) : 0.281
Размер потока : 5,36 Гбайт (86%)
Заголовок : BDRip -- STarankov
Библиотека кодирования : x264 core 142 r2431 ac76440
Настройки программы : cabac=1 / ref=9 / deblock=1:-2:-2 / analyse=0x3:0x113 / me=umh / subme=10 / psy=1 / psy_rd=1.00:0.15 / mixed_ref=1 / me_range=32 / chroma_me=1 / trellis=2 / 8x8dct=1 / cqm=0 / deadzone=21,11 / fast_pskip=1 / chroma_qp_offset=-3 / threads=6 / lookahead_threads=1 / sliced_threads=0 / nr=0 / decimate=1 / interlaced=0 / bluray_compat=0 / constrained_intra=0 / bframes=8 / b_pyramid=2 / b_adapt=2 / b_bias=0 / direct=3 / weightb=1 / open_gop=0 / weightp=2 / keyint=230 / keyint_min=23 / scenecut=40 / intra_refresh=0 / rc_lookahead=40 / rc=crf / mbtree=0 / crf=20.0 / qcomp=0.60 / qpmin=0 / qpmax=69 / qpstep=4 / vbv_maxrate=40000 / vbv_bufsize=50000 / crf_max=0.0 / nal_hrd=none / filler=0 / ip_ratio=1.40 / pb_ratio=1.30 / aq=1:1.00
Язык : English
Default : Да
Forced : Нет
DURATION : 02:08:12.685000000
NUMBER_OF_FRAMES : 184440
NUMBER_OF_BYTES : 5890247542
_STATISTICS_WRITING_APP : mkvmerge v7.7.0 ('Six Voices') 64bit built on Feb 28 2015 23:39:33
_STATISTICS_WRITING_DATE_UTC : 2015-03-17 07:11:17
_STATISTICS_TAGS : BPS DURATION NUMBER_OF_FRAMES NUMBER_OF_BYTES

Аудио #1
Идентификатор : 2
Формат : AC-3
Формат/Информация : Audio Coding 3
Расширение режима : CM (complete main)
Параметр Endianness формата : Big
Идентификатор кодека : A_AC3
Продолжительность : 2 ч. 8 м.
Вид битрейта : Постоянный
Битрейт : 192 Кбит/сек
Каналы : 2 канала
Расположение каналов : Front: L R
Частота : 48,0 КГц
Битовая глубина : 16 бит
Метод сжатия : С потерями
Размер потока : 176 Мбайт (3%)
Заголовок : DUB
Язык : Russian
Default : Да
Forced : Нет

Аудио #2
Идентификатор : 3
Формат : AC-3
Формат/Информация : Audio Coding 3
Расширение режима : CM (complete main)
Параметр Endianness формата : Big
Идентификатор кодека : A_AC3
Продолжительность : 2 ч. 8 м.
Вид битрейта : Постоянный
Битрейт : 256 Кбит/сек
Каналы : 2 канала
Расположение каналов : Front: L R
Частота : 48,0 КГц
Битовая глубина : 16 бит
Метод сжатия : С потерями
Размер потока : 235 Мбайт (4%)
Заголовок : DVO
Язык : Russian
Default : Нет
Forced : Нет

Аудио #3
Идентификатор : 4
Формат : AC-3
Формат/Информация : Audio Coding 3
Расширение режима : CM (complete main)
Параметр Endianness формата : Big
Идентификатор кодека : A_AC3
Продолжительность : 2 ч. 8 м.
Вид битрейта : Постоянный
Битрейт : 192 Кбит/сек
Каналы : 2 канала
Расположение каналов : Front: L R
Частота : 48,0 КГц
Битовая глубина : 16 бит
Метод сжатия : С потерями
Размер потока : 176 Мбайт (3%)
Заголовок : VO (Герасимов, одноголосый закадровый)
Язык : Russian
Default : Нет
Forced : Нет

Аудио #4
Идентификатор : 5
Формат : AC-3
Формат/Информация : Audio Coding 3
Расширение режима : CM (complete main)
Параметр Endianness формата : Big
Идентификатор кодека : A_AC3
Продолжительность : 2 ч. 8 м.
Вид битрейта : Постоянный
Битрейт : 192 Кбит/сек
Каналы : 2 канала
Расположение каналов : Front: L R
Частота : 48,0 КГц
Битовая глубина : 16 бит
Метод сжатия : С потерями
Размер потока : 176 Мбайт (3%)
Заголовок : Original
Язык : English
Default : Нет
Forced : Нет

Текст
Идентификатор : 6
Формат : UTF-8
Идентификатор кодека : S_TEXT/UTF8
Идентификатор кодека/Информация : UTF-8 Plain Text
Заголовок : английские (для слабослышащих)
Язык : English
Default : Нет
Forced : Нет

Меню
00:00:00.000 : :Chapter 01
00:11:01.702 : :Chapter 02
00:23:11.932 : :Chapter 03
00:35:27.542 : :Chapter 04
00:46:13.687 : :Chapter 05
00:56:47.529 : :Chapter 06
01:08:28.479 : :Chapter 07
01:20:53.557 : :Chapter 08
01:32:16.280 : :Chapter 09
01:43:48.220 : :Chapter 10
01:56:00.370 : :Chapter 11
02:04:40.431 : :Chapter 12
02:08:12.643 : :Chapter 13
pb.wtf



Скачать Под огнём через торрент http://i58.fastpic.ru/big/2015/0318/b1/055ed2edb7cdbf38fb074e1e55ba69b1.jpg Скачать фильм Под огнём через торрент бесплантно в хорошем качестве Описание: Расселл Прайс воспринимает революцию в Никарагуа через камеру, чтобы дистанцироваться от реальности. В Манагуа его эмоциональная ... 8.3 10 3
Торрент: Зарегистрирован [2015-03-18 10:50] · скачан: 11 раз
Статус: √ проверено
Размер: 6.23 GB
Как cкачать? Как скачать Под огнём через торрент | qTorrent

% Раздел Тема Автор DL S | L
Фильмы [HD 720p, 1080p] (Хороший звук DUB, MVO) [ 8.59 GB ] Под огнем / Under Fire [1983 военный BDRip 720p от KORSAR] [Dub + DVO + AVO + VO ] filbi1976 Скачать
1 | 0
Фильмы до 2000 г. [ 3.91 GB ] Под огнём / Under Fire [1983 военный BDRip-AVC] DUB DVO VO msltel Скачать
1 | 0

28-11-2019 20:33  

Отключить всю рекламу на сайте

    Дорогой пользователь! Огромная просьба, поблагодарите релизера, оцените раздачу и оставьте свои комментарий, если Вы скачали Под огнём через торрент бесплатно! Внесите свою лепту в развитие PiratBit!
    Комментировать посты могут только пользователи прошедшие не сложную регистрацию
    Показать сообщения:    

    Под огнём через торрент
    Скачать бесплатно Под огнём
    Под огнём скачать торрент
    Под огнём смотреть онлайн
    Cкачать фильм Под огнём бесплатно
    Под огнём скачать торрент в хорошем качестве
    Под огнём смотреть онлайн бесплатно в хорошем качестве


    Вы не можете начинать темы
    Вы не можете отвечать на сообщения
    Вы не можете редактировать свои сообщения
    Вы не можете удалять свои сообщения
    Вы не можете голосовать в опросах
    Вы не можете прикреплять файлы к сообщениям
    Вы можете скачивать файлы