Ссылка на приватное зеркало нашего сайта всего за 1$. Внимание количество ограничено!!!

2 сезон

iTunes

1 сезон

1

2 сезон

2 сезон

iTunes

1 сезон

RePack

30

Новинка

ВАЖНО

ИГРА 18+

pack

RePack

MK11
pack

Забери бонус

RePack

jed

!!Акция!!

Alien_Rage

RePack

fifa19

RePack

Assassins Creed: Odyssey

RePack

NEED FOR SPEED™ PAYBACK

4 сезон

9 сезон

Бесстыжие 9 сезон

Все сериалы

все сериалы на PB.wtf

RePack

FAR CRY 5
  

Исход: Цари и боги (Ридли Скотт) [2014 г., Боевик, Драма, Приключения, BDRip 1080p, Дубляж [iTunes]] Анаглиф (Дюбуа) pb.wtf

Исход: Цари и боги через торрент pb.wtf

Размер: 8.81 GB | Добавлен: 5 лет 8 мес. назад | Торрент скачан:79 раз
Скачать  

18-03-2015 12:17 Исход: Цари и боги Скачать торрент  

Исход: Цари и боги / Exodus: Gods and Kings
Год выпуска: 2014
Страна: Великобритания, США, Испания
Жанр: Боевик, Драма, Приключения
Продолжительность: 02:30:20
Перевод: Дубляж [iTunes]
Субтитры: Russian, English

Режиссер: Ридли Скотт
Продюссер: Питер Чернин, Марк Хаффам, Майкл Шефер
Сценарий: Адам Купер, Билл Колладж, Джефри Кейн

Бюджет: $140 000 000
Премьера в мире: 3 декабря 2014



В ролях: Кристиан Бэйл, Джоэл Эдгертон, Джон Туртурро, Аарон Пол, Бен Мендельсон, Мария Вальверде, Сигурни Уивер, Бен Кингсли, Хиам Аббасс, Исаак Эндрюс

Описание: Ветхозаветная история о великом пророке Моисее и освобождении еврейского народа из египетского плена. Моисей появился на свет в те времена, когда фараон приказал убивать всех новорожденных мальчиков еврейского происхождения. Чтобы спасти его, мать положила малыша в корзину из тростника и отправила вниз по Нилу.
Ребенка нашла дочь фараона, которая усыновила его и растила рядом с Рамсесом — будущим фараоном. Много лет спустя, став мужчиной, Моисей бежит из Египта, а затем возвращается туда по велению Господа, чтобы избавить свой народ от оков рабства…


Доп. информация: Формат 3D: Анаглиф (Дюбуа)



Качество: BDRip 1080p
Формат: MKV
Видео кодек: H.264
Аудио кодек: AC3
Видео: x264, 1920 x 1080 (16:9), 8012 kbps, 23,976 fps, ( 0.161 bpp)
Аудио#1: Русский / AC3 / 48 KHz / 2 ch / 384 Kbps (Дубляж - iTunes)



скриншот   скриншот   скриншот   скриншот   скриншот   скриншот  
Общее
Уникальный идентификатор : 214113895138749945704446725881016112909 (0xA114D6123B99EA2281729D1E6690570D)
Полное имя : D:\Exodus.Gods.and.Kings.(2014).(CROP).BDRip.1080p.3D.mkv
Формат : Matroska
Версия формата : Version 4 / Version 2
Размер файла : 8,81 Гбайт
Продолжительность : 2 ч. 30 м.
Общий поток : 8396 Кбит/сек
Название фильма : Исход: Цари и боги / Exodus: Gods and Kings (2014) BDRip 1080p (CROP) (Anaglyph-Dubois) iTunes
Дата кодирования : UTC 2015-03-18 10:19:23
Программа кодирования : mkvmerge v6.2.0 ('Promised Land') built on Apr 28 2013 12:22:01
Библиотека кодирования : libebml v1.3.0 + libmatroska v1.4.0

Видео
Идентификатор : 1
Формат : AVC
Формат/Информация : Advanced Video Codec
Профиль формата : High@L4.1
MultiView_Count : 2
MultiView_Layout : Anaglyph (cyan/red)
Параметр CABAC формата : Да
Параметр ReFrames формата : 4 кадра
Идентификатор кодека : V_MPEG4/ISO/AVC
Продолжительность : 2 ч. 30 м.
Битрейт : 8012 Кбит/сек
Ширина : 1920 пикселей
Высота : 1080 пикселей
Соотношение сторон : 16:9
Режим частоты кадров : Постоянный
Частота кадров : 23,976 кадра/сек
Цветовое пространство : YUV
Субдискретизация насыщенности : 4:2:0
Битовая глубина : 8 бит
Тип развёртки : Прогрессивная
Бит/(Пиксели*Кадры) : 0.161
Размер потока : 8,23 Гбайт (93%)
Заголовок : Exodus: Gods and Kings (2014) BDRip 1080p (CROP) (Anaglyph-Dubois).mkv
Библиотека кодирования : x264 core 130 r2273 b3065e6
Настройки программы : cabac=1 / ref=4 / deblock=1:-3:-3 / analyse=0x3:0x113 / me=umh / subme=7 / psy=1 / psy_rd=1.00:0.20 / mixed_ref=1 / me_range=16 / chroma_me=1 / trellis=2 / 8x8dct=1 / cqm=0 / deadzone=21,11 / fast_pskip=1 / chroma_qp_offset=-3 / threads=3 / lookahead_threads=1 / sliced_threads=0 / nr=0 / decimate=1 / interlaced=0 / bluray_compat=0 / constrained_intra=0 / bframes=4 / b_pyramid=2 / b_adapt=2 / b_bias=0 / direct=3 / weightb=1 / open_gop=0 / weightp=2 / keyint=250 / keyint_min=23 / scenecut=40 / intra_refresh=0 / rc_lookahead=50 / rc=2pass / mbtree=1 / bitrate=8012 / ratetol=1.0 / qcomp=0.60 / qpmin=0 / qpmax=69 / qpstep=4 / cplxblur=20.0 / qblur=0.5 / ip_ratio=1.40 / aq=1:1.00
Язык : English
Default : Да
Forced : Нет

Аудио
Идентификатор : 2
Формат : AC-3
Формат/Информация : Audio Coding 3
Расширение режима : CM (complete main)
Параметр Endianness формата : Big
Идентификатор кодека : A_AC3
Продолжительность : 2 ч. 30 м.
Вид битрейта : Постоянный
Битрейт : 384 Кбит/сек
Каналы : 6 каналов
Расположение каналов : Front: L C R, Side: L R, LFE
Частота : 48,0 КГц
Битовая глубина : 16 бит
Метод сжатия : С потерями
Размер потока : 413 Мбайт (5%)
Заголовок : (Дубляж - iTunes)
Язык : Russian
Default : Да
Forced : Нет

Текст #1
Идентификатор : 3
Формат : UTF-8
Идентификатор кодека : S_TEXT/UTF8
Идентификатор кодека/Информация : UTF-8 Plain Text
Заголовок : Forced
Язык : Russian
Default : Да
Forced : Нет

Текст #2
Идентификатор : 4
Формат : UTF-8
Идентификатор кодека : S_TEXT/UTF8
Идентификатор кодека/Информация : UTF-8 Plain Text
Заголовок : iTunes
Язык : Russian
Default : Нет
Forced : Нет

Текст #3
Идентификатор : 5
Формат : UTF-8
Идентификатор кодека : S_TEXT/UTF8
Идентификатор кодека/Информация : UTF-8 Plain Text
Заголовок : iTunes
Язык : English
Default : Нет
Forced : Нет

Меню
00:00:00.000 : en:1
00:03:54.000 : en:2
00:06:50.000 : en:3
00:11:46.000 : en:4
00:14:27.000 : en:5
00:18:35.000 : en:6
00:22:13.000 : en:7
00:26:48.000 : en:8
00:30:28.000 : en:9
00:36:38.000 : en:10
00:40:44.000 : en:11
00:44:46.000 : en:12
00:48:43.000 : en:13
00:51:12.000 : en:14
00:54:17.000 : en:15
00:57:28.000 : en:16
01:00:26.000 : en:17
01:04:36.000 : en:18
01:06:44.000 : en:19
01:10:56.000 : en:20
01:16:48.000 : en:21
01:21:12.000 : en:22
01:24:24.000 : en:23
01:28:02.000 : en:24
01:30:47.000 : en:25
01:34:07.000 : en:26
01:37:13.000 : en:27
01:39:13.000 : en:28
01:42:33.000 : en:29
01:46:42.000 : en:30
01:48:55.000 : en:31
01:52:10.000 : en:32
01:57:21.000 : en:33
02:00:15.000 : en:34
02:05:32.000 : en:35
02:07:22.000 : en:36
02:13:29.000 : en:37
02:16:12.000 : en:38
02:19:30.000 : en:39
02:23:10.000 : en:40

pb.wtf



Скачать Исход: Цари и боги через торрент http://pic1.kartinco.top/images/10/m8f2z.jpg Скачать фильм Исход: Цари и боги через торрент бесплантно в хорошем качестве Описание: Ветхозаветная история о великом пророке Моисее и освобождении еврейского народа из египетского плена. Моисей появился на свет в ... 10 10 1
Торрент: Зарегистрирован [2015-03-18 12:17] · скачан: 79 раз
Статус: √ проверено
Размер: 8.81 GB
Как cкачать? Как скачать Исход: Цари и боги через торрент | qTorrent

% Раздел Тема Автор DL S | L
3D Фильмы [ 22.02 GB ] Исход: Цари и боги [2014 BDrip 1080p] OverUnder / Вертикальная стереопара serega768 Скачать
1 | 0
Ultra HD (UHD: 2K, 4K, 8K) — видео сверхвысокой чёткости [ 38.42 GB ] Исход: Цари и боги / Exodus: Gods and Kings [2012 UHD BDRemux 2160p] - [] sheker187 Скачать
1 | 0
Фильмы [HD 720p, 1080p] (Хороший звук DUB, MVO) [ 20.78 GB ] Исход: Цари и боги [2014 BDRip 1080p] 2xDub + AVO + Original + Sub Seedtank Скачать
1 | 0
Фильмы 2014 [DVDrip, WEB-DLRip, HDrip] [ 1.45 GB ] Исход: Цари и боги [2014 WEB-DLRip - ] Ворон Скачать
1 | 0
Фильмы (BDRip, HDrip-AVC) (48-60 fps) [ 3.97 GB ] Исход: Цари и боги [2014 Испания BDRip-AVC 60fps ] от R.G. HD-Films Tiberiumsun69 Скачать
1 | 0
Фильмы (DVD фильмы) [ 7.19 GB ] Исход: цари и боги [2014 DVD9] R5 voovaz Скачать
1 | 0
Фильмы (Blu-ray, BD-Remux, HDDVD) [ 41 GB ] Исход: Цари и боги [2014 BD-Remux 2xDUB+AVO+Original] от R.G. HD-Films Seedtank Скачать
1 | 0

28-11-2019 20:33  

Отключить всю рекламу на сайте

    Дорогой пользователь! Огромная просьба, поблагодарите релизера, оцените раздачу и оставьте свои комментарий, если Вы скачали Исход: Цари и боги через торрент бесплатно! Внесите свою лепту в развитие PiratBit!
    Комментировать посты могут только пользователи прошедшие не сложную регистрацию
    Показать сообщения:    

    Исход: Цари и боги через торрент
    Скачать бесплатно Исход: Цари и боги
    Исход: Цари и боги скачать торрент
    Исход: Цари и боги смотреть онлайн
    Cкачать фильм Исход: Цари и боги бесплатно
    Исход: Цари и боги скачать торрент в хорошем качестве
    Исход: Цари и боги смотреть онлайн бесплатно в хорошем качестве


    Вы не можете начинать темы
    Вы не можете отвечать на сообщения
    Вы не можете редактировать свои сообщения
    Вы не можете удалять свои сообщения
    Вы не можете голосовать в опросах
    Вы не можете прикреплять файлы к сообщениям
    Вы можете скачивать файлы