Доктор Стрэндж

Лицензия

Добыча

Дубляж

Уэнсдэй

1 сезон

Тор

Дубляж

В эфире

Дубляж

Там, где раки поют

MVO

Властелин колец

1 сезон

Deluxe

pack

Рекомендуем

30

Пиратка

ВАЖНО

ВАЖНО

Ghostwire

Пиратка

jed

RePack

nioh2

RePack

RDR2

RePack

NEED FOR SPEED™ PAYBACK

RePack

скачать торрент

Кинопоиск HD

Острые козырьки 6 сезон

6 сезон

FAR CRY 6

RePack

скачать торрент

Лицензия

скачать торрент

MVO

1

1 сезон

скачать торрент

1 сезон

скачать торрент

Лицензия

  

Приключения викингов / Viking Quest (Тодор Чапканов ) [2014, фэнтези, боевик, BDRip 1080p, Профессиональный (многоголосый) [SDI]

Приключения викингов через торрент pb.wtf

Размер: 6.67 GB | Добавлен: 7 лет 8 мес. назад | Торрент скачан:152 раза
Смотреть онлайн | Скачать   

19-03-2015 03:19 Приключения викингов Скачать торрент  

Приключения викингов / Viking Quest


ИНФОРМАЦИЯ:
Год выпуска:2014
Страна: Канада, Болгария
Жанр: фэнтези, боевик
Продолжительность: 01:28:00
Перевод: Профессиональный (многоголосый) [SDI]
Режиссер: Тодор Чапканов

В Ролях:


Гарри Смит (Erick), Jenny Boyd (Tasya), Оливер Уолкер (Wolven), Аня Тейлор-Джой (Mani), Нэйт Феллоуз (Hild), Валентин Ганев (Druid), Веселин Мезеклиев (Greylock), Бен Кросс (King Orn), Кеймен Костов (King Sigvat), Муса Исуфи (King Chronos), Иван Костадинов (Stomper), Антон Трендафилов (Lars)

ОПИСАНИЕ:
Скандинавия. VII век нашей эры. Эрик, молодой воин-викинг, объединяет усилия с конкурирующим кланом, чтобы спасти похищенную змеем из Мидгарда принцессу. Это опаснейшая задача с риском гораздо большим, чем риск потерять жизни. Спасая принцессу, они могут вызвать Рагнарок - конец света.

  • Мировая премьера:7 октября 2014

    ТЕХ.ДАННЫЕ:
    Качество: BDRip 1080p
    Формат: MKV
    Видео кодек: AVC
    Аудио кодек: AC3, DTS
    Видео: AVC, 1920x1080 (16:9), 9695 kbps, 23,976 fps, 0,195 bpp
    Аудио №1: AC3 / 2.0 / 48 kHz / 192 kbps / 16 bit
    Аудио №2: английский / DTS / 5.1 / 48 kHz / 960 kbps / 24 bit
    Навигация по главам: есть



    Код:

    General
    Unique ID                                : 185130338293818757154172092209490739246 (0x8B46CE64015E3C63979609106296C02E)
    Complete name                            : D:\Торенты\Prikly4eni9.vikingov.2014.P.BDRip.1080p.mkv
    Format                                   : Matroska
    Format version                           : Version 2
    File size                                : 6.67 GiB
    Duration                                 : 1h 28mn
    Overall bit rate                         : 10.8 Mbps
    Encoded date                             : UTC 2015-03-17 12:18:12
    Writing application                      : mkvmerge v7.4.0 ('Circles') 64bit built on Dec 12 2014 12:19:56
    Writing library                          : libebml v1.3.0 + libmatroska v1.4.1

    Video
    ID                                       : 1
    Format                                   : AVC
    Format/Info                              : Advanced Video Codec
    Format profile                           : [email protected]
    Format settings, CABAC                   : Yes
    Format settings, ReFrames                : 4 frames
    Codec ID                                 : V_MPEG4/ISO/AVC
    Duration                                 : 1h 28mn
    Bit rate                                 : 9 695 Kbps
    Width                                    : 1 920 pixels
    Height                                   : 1 080 pixels
    Display aspect ratio                     : 16:9
    Frame rate                               : 23.976 fps
    Color space                              : YUV
    Chroma subsampling                       : 4:2:0
    Bit depth                                : 8 bits
    Scan type                                : Progressive
    Bits/(Pixel*Frame)                       : 0.195
    Stream size                              : 5.83 GiB (87%)
    Writing library                          : x264 core 146 r2538 121396c
    Encoding settings                        : cabac=1 / ref=4 / deblock=1:0:0 / analyse=0x3:0x113 / me=umh / subme=8 / psy=1 / psy_rd=1.00:0.00 / mixed_ref=1 / me_range=16 / chroma_me=1 / trellis=1 / 8x8dct=1 / cqm=0 / deadzone=21,11 / fast_pskip=0 / chroma_qp_offset=-2 / threads=12 / lookahead_threads=2 / sliced_threads=0 / nr=0 / decimate=1 / interlaced=0 / bluray_compat=0 / constrained_intra=0 / bframes=3 / b_pyramid=2 / b_adapt=2 / b_bias=0 / direct=3 / weightb=1 / open_gop=0 / weightp=2 / keyint=250 / keyint_min=23 / scenecut=40 / intra_refresh=0 / rc_lookahead=50 / rc=2pass / mbtree=1 / bitrate=9695 / ratetol=1.0 / qcomp=0.60 / qpmin=0 / qpmax=69 / qpstep=4 / cplxblur=20.0 / qblur=0.5 / ip_ratio=1.40 / aq=1:1.00
    Language                                 : English
    Default                                  : Yes
    Forced                                   : No

    Audio #1
    ID                                       : 2
    Format                                   : AC-3
    Format/Info                              : Audio Coding 3
    Mode extension                           : CM (complete main)
    Codec ID                                 : A_AC3
    Duration                                 : 1h 28mn
    Bit rate mode                            : Constant
    Bit rate                                 : 192 Kbps
    Channel(s)                               : 2 channels
    Channel positions                        : Front: L R
    Sampling rate                            : 48.0 KHz
    Bit depth                                : 16 bits
    Compression mode                         : Lossy
    Stream size                              : 121 MiB (2%)
    Default                                  : Yes
    Forced                                   : Yes

    Audio #2
    ID                                       : 3
    Format                                   : DTS
    Format/Info                              : Digital Theater Systems
    Codec ID                                 : A_DTS
    Duration                                 : 1h 28mn
    Bit rate mode                            : Constant
    Bit rate                                 : 960 Kbps
    Channel(s)                               : 6 channels
    Channel positions                        : Front: L C R, Side: L R, LFE
    Sampling rate                            : 48.0 KHz
    Bit depth                                : 24 bits
    Compression mode                         : Lossy
    Stream size                              : 604 MiB (9%)
    Language                                 : English
    Default                                  : No
    Forced                                   : No

    Menu
    00:00:00.000                             : en:00:00:00.000
    00:09:59.974                             : en:00:09:59.974
    00:19:59.990                             : en:00:19:59.990
    00:29:59.965                             : en:00:29:59.965
    00:39:59.981                             : en:00:39:59.981
    00:49:59.997                             : en:00:49:59.997
    00:59:59.971                             : en:00:59:59.971
    01:09:59.987                             : en:01:09:59.987
    01:19:59.962                             : en:01:19:59.962

    Скриншоты:



  • Скачать Приключения викингов через торрент http://i6-imageban-ru.translate.goog/out/2015/03/19/d345c8f07fd9cafd38f3f5dcf9c6c78d.png Скачать, смотреть онлайн Приключения викингов бесплантно в хорошем качестве Е:Скандинавия. VII век нашей эры. Эрик, молодой воин-викинг, объединяет усилия с конкурирующим кланом, чтобы спасти похищенную змеем из ... 9.5 10 10
    Торрент: Зарегистрирован [2015-03-19 03:19] · скачан: 152 раз
    Статус: √ проверено
    Размер: 6.67 GB
    Как cкачать? Как скачать Приключения викингов через торрент | UTorrent

    % Раздел Тема Автор DL S | L
    Фильмы 2014 [DVDrip, WEB-DLRip, HDrip] [ 1.37 GB ] Приключения викингов / Viking Quest | Приключения викингов / Viking Quest | HDRip MVO Ворон Скачать
    1 | 0

    28-11-2019 20:33  


    Отключить вcю реклaмy на сайте, в т.ч. и в плеере онлайн просмотра!

      Дорогой пользователь! Огромная просьба, поблагодарите релизера, оцените раздачу и оставьте свои комментарий, если Вы скачали Приключения викингов через торрент бесплатно!!
      Комментировать посты могут только пользователи прошедшие не сложную регистрацию
      Показать сообщения:    


      Приключения викингов через торрент
      Скачать бесплатно Приключения викингов
      Приключения викингов скачать торрент
      Приключения викингов смотреть онлайн
      Cкачать фильм Приключения викингов бесплатно
      Приключения викингов скачать торрент в хорошем качестве
      Приключения викингов смотреть онлайн бесплатно в хорошем качестве
      Вы не можете начинать темы
      Вы не можете отвечать на сообщения
      Вы не можете редактировать свои сообщения
      Вы не можете удалять свои сообщения
      Вы не можете голосовать в опросах
      Вы не можете прикреплять файлы к сообщениям
      Вы можете скачивать файлы
      Приключения викингов / Viking Quest [2014, фэнтези, боевик, BDRip 1080p, Профессиональный [SDI] смотреть онлайн, скачать торрент picoco.icu