Мега распродажа FORZA HORIZON 4 ULTIMATE+ВСЕ DLC+ОНЛАЙН всего за 499р. 349 руб. (супер цена). Внимание количество ограничено!!!

iTunes

1+1

iTunes

мы

iTunes

1

1 сезон

Чернобыль

1 сезон

Ральф против интернета

Лицензия

ПШазам

8 сезон

Игра престолов

Лицензия

30
pack

ВАЖНО

!!Акция!!

Alien_RageХит недели

RePack

Resident Evil 21

ИГРА 18+

pack

RePack

Metro:Exodus

!!Акция!!

Alien_Rage

RePack

fifa19

RePack

Assassins Creed: Odyssey

RePack

NEED FOR SPEED™ PAYBACK

3 сезон

9 сезон

Бесстыжие 9 сезон

Все сериалы

все сериалы на PB.wtf

RePack

FAR CRY 5
Ребята, катастрофически не хватает 2730р. для оплаты серверов за ИЮНЬ (всвязи с блокировками трафик упал в 3 раза), 1-2р., выручайте.
  

Без чувств / Senseless (Пенелопа Сфирис) [1998, мелодрама, комедия, BDRip] [MVO] (R5) + [AVO] (Санаев) + [Orig]+ [Sub] (Rus, Eng) pb.wtf

Без чувств через торрент pb.wtf

Раздают: 1 [ 0 KB/s ]
Размер: 1.7 GB | Добавлен: 4 года 4 мес. назад | Торрент скачан:103 раза
Скачать  

19-03-2015 09:04 Без чувств Скачать торрент  

Без чувств / Senseless
Год выпуска: 1998
Выпущено: США
Жанр: мелодрама, комедия
Продолжительность: 01:33:21
Перевод #1: Профессиональный (многоголосый, закадровый) [R5]
Перевод #2: Авторский (одноголосый) [П.Санаев] (отдельно)
Оригинальная звуковая дорожка (отдельно)
Субтитры: Русские, Английские (внешние srt*) (спасибо sociolog_melvas)

Режиссер: Пенелопа Сфирис / Penelope Spheeris

В ролях: Марлон Уайанс, Дэвид Спейд, Мэттью Лиллард, Тамара Тейлор, Брэд Дуриф, Рип Торн, Эстер Скотт, Дебра Джо Рапп, Марк Кристофер Лоуренс, Джон Ингл


Бедный студент Дэррил Уизерспун трудится на четырех работах, но денег на оплату счетов всё равно не хватает. В надежде добыть еще немного средств Дэррил соглашается принять участие в сомнительном медицинском эксперименте. Молодой человек становится чуть ли не супергероем, но неожиданно о себе дают знать странные побочные эффекты...



Качество: BDRip [исх.BD-Remux / 1080p]
Формат: AVI
Видео кодек: XviD
Аудио кодек: AC3
Видео: 720x400 (1.80:1), 23,976 fps, XviD build 65 ~1830 kbps avg, 0.27 bit/pixel
Аудио #1: 48 kHz, AC3 Dolby Digital, 3/2 (L,C,R,l,r) + LFE ch, ~384.00 kbps avg R5
Аудио #2: 48 kHz, AC3 Dolby Digital, 2/0 (L,R), ~192.00 kbps avg avo [AVO](отдельно)
Аудио #3: 48 kHz, AC3 Dolby Digital, 2/0 (L,R), ~192.00 kbps avg eng [ENG](отдельно)

Автор: kingsize87


Формат : AVI
Формат/Информация : Audio Video Interleave
Размер файла : 1,45 Гбайт
Продолжительность : 1 ч. 33 м.
Общий поток : 2224 Кбит/сек
Название фильма : Без чувств / Senseless (1998) BDRip
Режиссёр : kingsize87
Программа кодирования : VirtualDubMod 1.5.10.2 (build 2540/release)
Правообладатель : HQCLUB
Примечание : 07.07.2013
Видео
Идентификатор : 0
Формат : MPEG-4 Visual
Профиль формата : Advanced Simple@L5
Параметр BVOP формата : 1
Параметр QPel формата : Нет
Параметр GMC формата : Без точки перехода
Параметр матрицы формата : Выборочная
Идентификатор кодека : XVID
Идентификатор кодека/Подсказка : XviD
Продолжительность : 1 ч. 33 м.
Битрейт : 1831 Кбит/сек
Ширина : 720 пикселей
Высота : 400 пикселей
Соотношение сторон : 16:9
Частота кадров : 23,976 кадра/сек
Цветовое пространство : YUV
Субдискретизация насыщенности : 4:2:0
Битовая глубина : 8 бит
Тип развёртки : Прогрессивная
Метод сжатия : С потерями
Бит/(Пиксели*Кадры) : 0.265
Размер потока : 1,19 Гбайт (82%)
Библиотека кодирования : XviD 65
Аудио
Идентификатор : 1
Формат : AC-3
Формат/Информация : Audio Coding 3
Расширение режима : CM (complete main)
Параметр Endianness формата : Big
Идентификатор кодека : 2000
Продолжительность : 1 ч. 33 м.
Вид битрейта : Постоянный
Битрейт : 384 Кбит/сек
Каналы : 6 каналов
Расположение каналов : Front: L C R, Side: L R, LFE
Частота : 48,0 КГц
Битовая глубина : 16 бит
Метод сжатия : С потерями
Размер потока : 256 Мбайт (17%)
Выравнивание : Разделение по промежуткам
Продолжительность промежутка : 42 мс. (1,00 видеокадр)
Время предзагрузки промежутка : 500 мс.

pb.wtf



Скачать Без чувств через торрент http://pic.kartinco.top/images/1/ug8abzeqmt.jpg Скачать фильм Без чувств через торрент бесплантно в хорошем качестве В ролях: Марлон Уайанс, Дэвид Спейд, Мэттью Лиллард, Тамара Тейлор, Брэд Дуриф, Рип Торн, Эстер Скотт, Дебра Джо Рапп, Марк Кристофер ... 10 10 12
Торрент: Зарегистрирован [2015-03-19 09:04] · скачан: 103 раз
Статус: √ проверено
Размер: 1.7 GB
Как cкачать? Как скачать Без чувств через торрент | qTorrent

% Раздел Тема Автор DL S | L
Фильмы [HD 720p, 1080p] (Хороший звук DUB, MVO) [ 12.4 GB ] Без чувств / Senseless [1998 BDRip 1080p by msltel] MVO DVO AVO msltel Скачать
1 | 0
Фильмы [HD 720p, 1080p] (Хороший звук DUB, MVO) [ 4.8 GB ] Без чувств / Senseless [1998 BDRip 720p by msltel] MVO DVO AVO msltel Скачать
1 | 0
Фильмы до 2000 г. [ 1.46 GB ] Без чувств / Бесчувственный / Бестолочь / Senseless [1998 DVDRip] [Fullscreen version] MVO + DVO Ворон Скачать
1 | 0
Фильмы [HD 720p, 1080p] (Хороший звук DUB, MVO) [ 7.9 GB ] Без чувств / Senseless [1998 BDRip 720p MVO] Ke$h@ Скачать
1 | 0
Фильмы до 2000 г. [ 1.7 GB ] Без чувств / Senseless [1998 DVDRip MVO] timsons17 Скачать
1 | 0
Фильмы до 2000 г. [ 671 MB ] Без чувств  / Senseless [1998 молодежная DVDRip] CNB Скачать
1 | 0


>> Регистрируемся здесь <<






Отзывы и комментарии о схеме читаем и пишем здесь: ---> Отзывы и комментарии о схеме

Новые благодарочки в телеграм довольных пользователей:
скриншот   скриншот   скриншот   скриншот   скриншот
    Дорогой пользователь! Огромная просьба, поблагодарите релизера, оцените раздачу и оставьте свои комментарий, если Вы скачали Без чувств через торрент бесплатно! Внесите свою лепту в развитие PiratBit!
    Комментировать посты могут только пользователи прошедшие не сложную регистрацию
    Показать сообщения:    

    Без чувств через торрент
    Скачать бесплатно Без чувств
    Без чувств скачать торрент
    Без чувств смотреть онлайн
    Cкачать фильм Без чувств бесплатно
    Без чувств скачать торрент в хорошем качестве
    Без чувств смотреть онлайн бесплатно в хорошем качестве


    Вы не можете начинать темы
    Вы не можете отвечать на сообщения
    Вы не можете редактировать свои сообщения
    Вы не можете удалять свои сообщения
    Вы не можете голосовать в опросах
    Вы не можете прикреплять файлы к сообщениям
    Вы можете скачивать файлы