Ссылка на приватное зеркало нашего сайта всего за 1$. Внимание количество ограничено!!!

2 сезон

iTunes

1 сезон

1

iTunes

iTunes

iTunes

1 сезон

RePack

30

ИГРА 18+

pack

ВАЖНО

!!Акция!!

Alien_RageХит недели

RePack

MK11
pack

Забери бонус

RePack

jed

!!Акция!!

Alien_Rage

RePack

fifa19

RePack

Assassins Creed: Odyssey

RePack

NEED FOR SPEED™ PAYBACK

4 сезон

9 сезон

Бесстыжие 9 сезон

Все сериалы

все сериалы на PB.wtf

RePack

FAR CRY 5
  

Видение / Dreamscape (Джозеф Рубин) [1984, ужасы, фантастика, триллер, приключения, BDRip 720p] 2 x AVO pb.wtf

Видение через торрент pb.wtf

Размер: 5.46 GB | Добавлен: 5 лет 7 мес. назад | Торрент скачан:30 раз
Скачать  

19-03-2015 14:02 Видение Скачать торрент  

Видение / Dreamscape

Год выпуска: 1984
Страна: США
Жанр: ужасы, фантастика, триллер, приключения
Продолжительность: 01:38:58
Перевод: авторский
Субтитры: нет

Режиссёр: Джозеф Рубин

В ролях: Дэннис Куэйд, Макс фон Сюдов, Кристофер Пламмер, Эдди Альберт, Кейт Кэпшоу, Дэвид Патрик Келли, Джордж Уэндт, Ларри Гельман, Редмонд Глисон

Описание: Алекс Гарднер обнаруживает, что физически может проникать в сны других людей, и принимает участие в запутанной политической интриге...



Качество: BDRip 720p Сравнение с исходником
Формат: MKV
Видео кодек: H.264
Аудио кодек: AC3
Видео: 6402 Кбит/с, 1280x692, 23.976 кадра/с, 0.301 bpp
Аудио 1: русский, AC3, 448 kbps, 6 ch, 48 kHz [авторский, Сергей Визгунов]
Аудио 2: русский, AC3, 448 kbps, 6 ch, 48 kHz [авторский, Григорий Либергал]
Аудио 3: английский, AC3, 448 kbps, 6 ch, 48 kHz [оригинал]

Имеются неименованные главы/чаптеры.
Сатурн, 1985 год
Номинации (1):
Лучший фильм ужасов
frame I:916 Avg QP:19.27 size:114097
frame P:27264 Avg QP:20.58 size: 66233
frame B:114212 Avg QP:22.59 size: 25896

Общее
Уникальный идентификатор : 208641311127962397461022920346865256904 (0x9CF6DAD901A6C3F290EDD719A43C49C8)
Полное имя : D:VideoVidenie.1984.BDRip.720p.mkv
Формат : Matroska
Версия формата : Version 4 / Version 2
Размер файла : 5,46 Гбайт
Продолжительность : 1 ч. 38 м.
Общий поток : 7904 Кбит/сек
Дата кодирования : UTC 2015-03-19 12:58:48
Программа кодирования : mkvmerge v7.7.0 ('Six Voices') 64bit built on Feb 28 2015 23:39:33
Библиотека кодирования : libebml v1.3.1 + libmatroska v1.4.2
_STATISTICS_WRITING_APP : mkvmerge v7.7.0 ('Six Voices') 64bit built on Feb 28 2015 23:39:33
_STATISTICS_WRITING_DATE_UTC : 2015-03-19 12:58:48
_STATISTICS_TAGS : BPS DURATION NUMBER_OF_FRAMES NUMBER_OF_BYTES
DURATION : 01:38:58.912000000
NUMBER_OF_FRAMES : 185591
NUMBER_OF_BYTES : 332579072

Видео
Идентификатор : 1
Формат : AVC
Формат/Информация : Advanced Video Codec
Профиль формата : High@L4.1
Параметр CABAC формата : Да
Параметр ReFrames формата : 9 кадров
Идентификатор кодека : V_MPEG4/ISO/AVC
Продолжительность : 1 ч. 38 м.
Битрейт : 6402 Кбит/сек
Ширина : 1280 пикселей
Высота : 692 пикселя
Соотношение сторон : 1,85:1
Режим частоты кадров : Постоянный
Частота кадров : 23,976 кадра/сек
Цветовое пространство : YUV
Субдискретизация насыщенности : 4:2:0
Битовая глубина : 8 бит
Тип развёртки : Прогрессивная
Бит/(Пиксели*Кадры) : 0.301
Размер потока : 4,43 Гбайт (81%)
Заголовок : BDRip -- STarankov
Библиотека кодирования : x264 core 142 r2431 ac76440
Настройки программы : cabac=1 / ref=9 / deblock=1:-2:-2 / analyse=0x3:0x113 / me=umh / subme=10 / psy=1 / psy_rd=1.00:0.15 / mixed_ref=1 / me_range=32 / chroma_me=1 / trellis=2 / 8x8dct=1 / cqm=0 / deadzone=21,11 / fast_pskip=1 / chroma_qp_offset=-3 / threads=6 / lookahead_threads=1 / sliced_threads=0 / nr=0 / decimate=1 / interlaced=0 / bluray_compat=0 / constrained_intra=0 / bframes=8 / b_pyramid=2 / b_adapt=2 / b_bias=0 / direct=3 / weightb=1 / open_gop=0 / weightp=2 / keyint=230 / keyint_min=23 / scenecut=40 / intra_refresh=0 / rc_lookahead=40 / rc=crf / mbtree=0 / crf=20.0 / qcomp=0.60 / qpmin=0 / qpmax=69 / qpstep=4 / vbv_maxrate=40000 / vbv_bufsize=50000 / crf_max=0.0 / nal_hrd=none / filler=0 / ip_ratio=1.40 / pb_ratio=1.30 / aq=1:1.00
Язык : English
Default : Да
Forced : Нет
DURATION : 01:38:58.933000000
NUMBER_OF_FRAMES : 142392
NUMBER_OF_BYTES : 4867935244
_STATISTICS_WRITING_APP : mkvmerge v7.7.0 ('Six Voices') 64bit built on Feb 28 2015 23:39:33
_STATISTICS_WRITING_DATE_UTC : 2015-03-19 12:58:48
_STATISTICS_TAGS : BPS DURATION NUMBER_OF_FRAMES NUMBER_OF_BYTES

Аудио #1
Идентификатор : 2
Формат : AC-3
Формат/Информация : Audio Coding 3
Расширение режима : CM (complete main)
Параметр Endianness формата : Big
Идентификатор кодека : A_AC3
Продолжительность : 1 ч. 38 м.
Вид битрейта : Постоянный
Битрейт : 448 Кбит/сек
Каналы : 6 каналов
Расположение каналов : Front: L C R, Side: L R, LFE
Частота : 48,0 КГц
Битовая глубина : 16 бит
Метод сжатия : С потерями
Размер потока : 317 Мбайт (6%)
Заголовок : AVO (Сергей Визгунов)
Язык : Russian
Default : Да
Forced : Нет

Аудио #2
Идентификатор : 3
Формат : AC-3
Формат/Информация : Audio Coding 3
Расширение режима : CM (complete main)
Параметр Endianness формата : Big
Идентификатор кодека : A_AC3
Продолжительность : 1 ч. 38 м.
Вид битрейта : Постоянный
Битрейт : 448 Кбит/сек
Каналы : 6 каналов
Расположение каналов : Front: L C R, Side: L R, LFE
Частота : 48,0 КГц
Битовая глубина : 16 бит
Метод сжатия : С потерями
Размер потока : 317 Мбайт (6%)
Заголовок : AVO (Григорий Либергал)
Язык : Russian
Default : Нет
Forced : Нет

Аудио #3
Идентификатор : 4
Формат : AC-3
Формат/Информация : Audio Coding 3
Расширение режима : CM (complete main)
Параметр Endianness формата : Big
Идентификатор кодека : A_AC3
Продолжительность : 1 ч. 38 м.
Вид битрейта : Постоянный
Битрейт : 448 Кбит/сек
Каналы : 6 каналов
Расположение каналов : Front: L C R, Side: L R, LFE
Частота : 48,0 КГц
Битовая глубина : 16 бит
Метод сжатия : С потерями
Размер потока : 317 Мбайт (6%)
Заголовок : Original
Язык : English
Default : Нет
Forced : Нет

Меню
00:00:00.000 : :Chapter 01
00:02:50.044 : :Chapter 02
00:07:37.623 : :Chapter 03
00:15:41.899 : :Chapter 04
00:20:22.721 : :Chapter 05
00:26:07.065 : :Chapter 06
00:32:04.005 : :Chapter 07
00:38:01.570 : :Chapter 08
00:44:22.993 : :Chapter 09
00:49:18.997 : :Chapter 10
00:58:37.597 : :Chapter 11
01:02:44.385 : :Chapter 12
01:11:13.143 : :Chapter 13
01:14:49.318 : :Chapter 14
01:20:52.264 : :Chapter 15
01:33:17.842 : :Chapter 16
pb.wtf



Скачать Видение через торрент http://i66.fastpic.ru/big/2015/0319/02/50bdf9ecaa4e8ca96f0da1c518fca702.jpg Скачать фильм Видение через торрент бесплантно в хорошем качестве Описание: Алекс Гарднер обнаруживает, что физически может проникать в сны других людей, и принимает участие в запутанной политической ... 10 10 1
Торрент: Зарегистрирован [2015-03-19 14:02] · скачан: 30 раз
Статус: √ проверено
Размер: 5.46 GB
Как cкачать? Как скачать Видение через торрент | qTorrent

% Раздел Тема Автор DL S | L
Фильмы до 2000 г. [ 3.22 GB ] Видение / Dreamscape [1984 BDRip-AVC] 2 x AVO msltel Скачать
1 | 0

28-11-2019 20:33  

Отключить всю рекламу на сайте

    Дорогой пользователь! Огромная просьба, поблагодарите релизера, оцените раздачу и оставьте свои комментарий, если Вы скачали Видение через торрент бесплатно! Внесите свою лепту в развитие PiratBit!
    Комментировать посты могут только пользователи прошедшие не сложную регистрацию
    Показать сообщения:    

    Видение через торрент
    Скачать бесплатно Видение
    Видение скачать торрент
    Видение смотреть онлайн
    Cкачать фильм Видение бесплатно
    Видение скачать торрент в хорошем качестве
    Видение смотреть онлайн бесплатно в хорошем качестве


    Вы не можете начинать темы
    Вы не можете отвечать на сообщения
    Вы не можете редактировать свои сообщения
    Вы не можете удалять свои сообщения
    Вы не можете голосовать в опросах
    Вы не можете прикреплять файлы к сообщениям
    Вы можете скачивать файлы