Ссылка на приватное зеркало нашего сайта всего за 1$. Внимание количество ограничено!!!

2 сезон

iTunes

1 сезон

1

2 сезон

2 сезон

iTunes

1 сезон

RePack

30

Новинка

ВАЖНО

ИГРА 18+

pack

RePack

MK11
pack

Забери бонус

RePack

jed

!!Акция!!

Alien_Rage

RePack

fifa19

RePack

Assassins Creed: Odyssey

RePack

NEED FOR SPEED™ PAYBACK

4 сезон

9 сезон

Бесстыжие 9 сезон

Все сериалы

все сериалы на PB.wtf

RePack

FAR CRY 5
  

Сообщество / Community / Сезон: 6 / Серии: 1-3 из 13 [2015, США, комедия, WEB-DL 720p] DVO [Кубик в Кубе] + Original pb.wtf

Сообщество через торрент pb.wtf

Размер: 2.62 GB | Добавлен: 5 лет 7 мес. назад | Торрент скачан:26 раз
Скачать  

19-03-2015 20:17 Сообщество Скачать торрент  

Сообщество / Community
«Mastering the B.S. degree at community college»
Год выпуска: 2015
Страна: США
Жанр: комедия
Продолжительность: 00:27:26
Перевод:
|Профессиональный (двухголосый, закадровый) Кубик в Кубе|
Субтитры: английские

В ролях: Джоэл МакХэйл (Jeff Winger), Гиллиан Джейкобс (Britta Perry), Элисон Бри (Annie Edison), Дэнни Пуди (Abed Nadir), Иветт Николь Браун (Shirley Bennett), Дональд Гловер (Troy Barnes), Кен Жонг (Señor Chang), Джим Рэш (Dean Pelton), Чеви Чейз (Pierce Hawthorne), Ричард Эрдман (Leonard), Дино Стаматопулос (Star-Burns), Эрик Чарльз Нилсен (Garrett Lambert)
Описание:
Сериал рассказывает о студенческом сообществе, которое состоит из школьных лузеров, недавно разведенных домохозяек и пожилых людей, старающихся сохранить трезвый ум.

Рейтинг

Качество: WEB-DL 720p
Формат: MKV
Видео кодек: AVC
Аудио кодек: AC3
Видео: AVC, 1280x718 (16:9), 4000 kbps, 23,976 fps
Аудио №1: русский / AC3 / 5.1 / 48 kHz / 384 kbps / 16 bit ||
Аудио №2: английский / AC3 / 5.1 / 48 kHz / 384 kbps / 16 bit
Оформление: Messa-fan
Работа со звуком: messafan
Релиз:

Код:

General
Unique ID                                : 240122056553721472285575014732537034268 (0xB4A5D36E581014B8BE716183B3D0761C)
Complete name                            : Comminity.Season.6.720.CasStudio.TV\Community.S06E01.Ladders.720p.WEBDL.CasStudio.TV.mkv
Format                                   : Matroska
Format version                           : Version 4 / Version 2
File size                                : 934 MiB
Duration                                 : 27mn 28s
Overall bit rate                         : 4 755 Kbps
Movie name                               : Comminity 06x01 (Ladders) - release by messafan for CasStudio.TV   Six_seasons_and_a_movie!
Encoded date                             : UTC 2015-03-22 12:13:19
Writing application                      : mkvmerge v6.7.0 ('Back to the Ground') 64bit built on Jan  8 2014 15:10:52
Writing library                          : libebml v1.3.0 + libmatroska v1.4.1

Video
ID                                       : 1
Format                                   : AVC
Format/Info                              : Advanced Video Codec
Format profile                           : High@L3.1
Format settings, CABAC                   : No
Format settings, ReFrames                : 2 frames
Codec ID                                 : V_MPEG4/ISO/AVC
Duration                                 : 27mn 28s
Bit rate                                 : 3 892 Kbps
Width                                    : 1 280 pixels
Height                                   : 718 pixels
Display aspect ratio                     : 16:9
Frame rate mode                          : Constant
Frame rate                               : 23.976 fps
Color space                              : YUV
Chroma subsampling                       : 4:2:0
Bit depth                                : 8 bits
Scan type                                : Progressive
Bits/(Pixel*Frame)                       : 0.177
Stream size                              : 765 MiB (82%)
Language                                 : English
Default                                  : Yes
Forced                                   : No
Color primaries                          : BT.709
Transfer characteristics                 : BT.709
Matrix coefficients                      : BT.709

Audio #1
ID                                       : 2
Format                                   : AC-3
Format/Info                              : Audio Coding 3
Mode extension                           : CM (complete main)
Format settings, Endianness              : Big
Codec ID                                 : A_AC3
Duration                                 : 27mn 28s
Bit rate mode                            : Constant
Bit rate                                 : 384 Kbps
Channel(s)                               : 6 channels
Channel positions                        : Front: L C R, Side: L R, LFE
Sampling rate                            : 48.0 KHz
Bit depth                                : 16 bits
Compression mode                         : Lossy
Stream size                              : 75.5 MiB (8%)
Title                                    : KvK 5.1
Language                                 : Russian
Default                                  : Yes
Forced                                   : No

Audio #2
ID                                       : 3
Format                                   : AC-3
Format/Info                              : Audio Coding 3
Mode extension                           : CM (complete main)
Format settings, Endianness              : Big
Codec ID                                 : A_AC3
Duration                                 : 27mn 28s
Bit rate mode                            : Constant
Bit rate                                 : 384 Kbps
Channel(s)                               : 6 channels
Channel positions                        : Front: L C R, Side: L R, LFE
Sampling rate                            : 48.0 KHz
Bit depth                                : 16 bits
Compression mode                         : Lossy
Stream size                              : 75.5 MiB (8%)
Title                                    : Eng Sub
Language                                 : English
Default                                  : No
Forced                                   : No

Text
ID                                       : 4
Format                                   : UTF-8
Codec ID                                 : S_TEXT/UTF8
Codec ID/Info                            : UTF-8 Plain Text
Title                                    : English 5.1
Language                                 : English
Default                                  : No
Forced                                   : No



Внимание! Раздача ведётся путём добавления новых серий; при каждом добавлении создётся новый торрент. Чтобы начать докачку новой серии, пользователям необходимо сделать следующее:
(1) остановить скачивание,
(2) удалить старый торрент у себя из клиента (старые серии удалять не надо),
(3) скачать новый торрент и запустить его у себя в клиенте вместо старого, при этом указать клиенту путь в старую папку куда и должно происходить скачивание новых серий.
Ваш клиент при этом должен произвести хеширование (проверку) старой папки (если не производит сам - помогите ему сделать это), и будет докачивать только те серии которых у вас ещё нет. Старые серии при этом не удаляются, а продолжают раздаваться!
Eсли вы уже удалили старые серии, то предотвратить повторную закачку старых серий можно, отжав галочку в соответсвующих местах при запуске нового торрента. По возможности, желательно не удалять старые серии как можно дольше чтобы релизёр не столько продолжал раздавать старые серии, а смог сконцентрироваться на новых.
Добавлены серии 2 и 3!pb.wtf



Скачать Сообщество через торрент http://i57.fastpic.ru/big/2015/0319/2f/984b1a30c74563992cbe8e467d4f132f.jpg Скачать фильм Сообщество через торрент бесплантно в хорошем качестве Описание: Сериал рассказывает о студенческом сообществе, которое состоит из школьных лузеров, недавно разведенных домохозяек и пожилых ... 7 10 3
Info! Серебряная раздача, засчитывается только 50% скачанного.
Торрент: Зарегистрирован [2015-04-06 15:54] · скачан: 26 раз
Статус: √ проверено
Размер: 2.62 GB
Как cкачать? Как скачать Сообщество через торрент | qTorrent



Последний раз редактировалось: Messa-fan (2015-04-06 15:54), всего редактировалось 4 раз(а)

28-11-2019 20:33  

Отключить всю рекламу на сайте

19-03-2015 20:18 Сообщество Скачать торрент  

#Шесть_Сезонов_и_Фильм!pb.wtf



19-03-2015 21:05 Сообщество Скачать торрент  

Такс такс такс, наканец-та. Жаль Гловера не будет/будет очень мало - он был хорош.pb.wtf



19-03-2015 23:41 Сообщество Скачать торрент  

О-ля-ля! Гуд ньюс!pb.wtf



22-03-2015 15:41 Сообщество Скачать торрент  

Первая серия заменена на WEB-DLpb.wtf



06-04-2015 15:55 Сообщество Скачать торрент  

Добавлены серии 2 и 3!pb.wtf



    Дорогой пользователь! Огромная просьба, поблагодарите релизера, оцените раздачу и оставьте свои комментарий, если Вы скачали Сообщество через торрент бесплатно! Внесите свою лепту в развитие PiratBit!
    Комментировать посты могут только пользователи прошедшие не сложную регистрацию
    Показать сообщения:    

    Сообщество через торрент
    Скачать бесплатно Сообщество
    Сообщество скачать торрент
    Сообщество смотреть онлайн
    Cкачать фильм Сообщество бесплатно
    Сообщество скачать торрент в хорошем качестве
    Сообщество смотреть онлайн бесплатно в хорошем качестве


    Вы не можете начинать темы
    Вы не можете отвечать на сообщения
    Вы не можете редактировать свои сообщения
    Вы не можете удалять свои сообщения
    Вы не можете голосовать в опросах
    Вы не можете прикреплять файлы к сообщениям
    Вы можете скачивать файлы