Ссылка на приватное зеркало нашего сайта всего за 1$. Внимание количество ограничено!!!

2 сезон

iTunes

1 сезон

1

iTunes

iTunes

iTunes

1 сезон

RePack

30

ИГРА 18+

pack

ВАЖНО

!!Акция!!

Alien_RageХит недели

RePack

MK11
pack

Забери бонус

RePack

jed

!!Акция!!

Alien_Rage

RePack

fifa19

RePack

Assassins Creed: Odyssey

RePack

NEED FOR SPEED™ PAYBACK

4 сезон

9 сезон

Бесстыжие 9 сезон

Все сериалы

все сериалы на PB.wtf

RePack

FAR CRY 5
  

Ограбление по-американски / American Heist (Сарик Андреасян ) [2014, триллер, криминал, драма, BDRip 1080p, Дубляж] iTunes pb.wtf

Ограбление по-американски через торрент pb.wtf

Размер: 10.66 GB | Добавлен: 5 лет 7 мес. назад | Торрент скачан:394 раза
Скачать  

19-03-2015 20:50 Ограбление по-американски Скачать торрент  


Ограбление по-американски / American Heist


ИНФОРМАЦИЯ:
Год выпуска:2014
Страна: США, Россия
Жанр: триллер, криминал, драма, боевик
Продолжительность: 01:34:40
Перевод: Дубляж - [Лицензия / iTunes]
Режиссер: Сарик Андреасян

В Ролях:


Хейден Кристенсен (James), Эдриан Броуди (Frankie), Джордана Брюстер (Emily), Эйкон (Sugar), Тори Киттлз (Ray), Луис Да Силва мл. (Spoonie), Лэнс Э. Николс (The Boss), Джон МакКоннелл (Bank Manager), Джо Крест (Police Captain), Аарон В. Уильямсон (House), Рэйчел Билсон (Eyewitness), Лора Кайюэтт (Loan Officer)

ОПИСАНИЕ:
У Джеймса темное прошлое, но сейчас он из всех сил пытается изменить свою жизнь - встречается с красивой девушкой, устроился работать автомехаником, мечтает о собственном бизнесе. Тем временем, его старший брат Френки, отсидевший десять лет в тюрьме, выходит на свободу. Френки пытается наладить отношения, но Джеймс не может простить брата за то, что много лет назад он втянул его в криминал, из-за чего Джеймс отсидел шестнадцать месяцев.
Однако попытки Джеймса начать новую жизнь не складываются: из-за тюремного прошлого он не может рассчитывать на хорошую работу и получает отказы в кредитовании своего бизнеса. Видя это, Френки предлагает Джеймсу «провести небольшое дельце». Он клянется, что это в последний раз и после ограбления банка в Новом Орлеане у них будут деньги, и они вернут свою жизнь, которую когда-то потеряли. В результате «небольшое дельце» станет одним из самых кровавых и драматических налетов в истории Америки...

  • Мировая премьера:11 сентября 2014

    ТЕХ.ДАННЫЕ:
    Качество: BDRip 1080p
    Формат: MKV
    Видео кодек: AVC
    Аудио кодек: AC3
    Видео: AVC, 1920x804 (2.40:1), 14971 kbps, 24 fps, 0,404 bpp
    Аудио №1: русский / AC3 / 5.1 / 48 kHz / 384 kbps / 16 bit ||
    Аудио №2: английский / AC3 / 5.1 / 48 kHz / 448 kbps / 16 bit



    Код:

    General
    Unique ID                                : 252755481329605128027422343698912780134 (0xBE26EF5CD1E61EA2BE78D2791F5E1F66)
    Complete name                            : D:\Торенты\Ogr4blen1e.p0.Amerikasky.2014.D.BDRip.1080p.mkv
    Format                                   : Matroska
    Format version                           : Version 4 / Version 2
    File size                                : 10.7 GiB
    Duration                                 : 1h 34mn
    Overall bit rate                         : 16.1 Mbps
    Encoded date                             : UTC 2015-03-19 18:43:06
    Writing application                      : mkvmerge v6.1.0 ('Old Devil') built on Mar  2 2013 14:32:37
    Writing library                          : libebml v1.3.0 + libmatroska v1.4.0

    Video
    ID                                       : 1
    Format                                   : AVC
    Format/Info                              : Advanced Video Codec
    Format profile                           : High@L4.1
    Format settings, CABAC                   : Yes
    Format settings, ReFrames                : 4 frames
    Codec ID                                 : V_MPEG4/ISO/AVC
    Duration                                 : 1h 34mn
    Bit rate                                 : 15.0 Mbps
    Width                                    : 1 920 pixels
    Height                                   : 804 pixels
    Display aspect ratio                     : 2.40:1
    Frame rate                               : 24.000 fps
    Color space                              : YUV
    Chroma subsampling                       : 4:2:0
    Bit depth                                : 8 bits
    Scan type                                : Progressive
    Bits/(Pixel*Frame)                       : 0.404
    Stream size                              : 9.90 GiB (93%)
    Writing library                          : x264 core 144 r2525 40bb568
    Encoding settings                        : cabac=1 / ref=1 / deblock=1:0:0 / analyse=0x3:0x113 / me=dia / subme=7 / psy=1 / psy_rd=1.00:0.00 / mixed_ref=0 / me_range=16 / chroma_me=1 / trellis=0 / 8x8dct=1 / cqm=0 / deadzone=21,11 / fast_pskip=1 / chroma_qp_offset=-2 / threads=12 / lookahead_threads=4 / sliced_threads=0 / nr=0 / decimate=1 / interlaced=0 / bluray_compat=0 / constrained_intra=0 / bframes=3 / b_pyramid=2 / b_adapt=1 / b_bias=0 / direct=1 / weightb=1 / open_gop=0 / weightp=1 / keyint=240 / keyint_min=24 / scenecut=40 / intra_refresh=0 / rc=cqp / mbtree=0 / qp=18 / ip_ratio=1.40 / pb_ratio=1.30 / aq=0
    Language                                 : English
    Default                                  : Yes
    Forced                                   : No

    Audio #1
    ID                                       : 2
    Format                                   : AC-3
    Format/Info                              : Audio Coding 3
    Mode extension                           : CM (complete main)
    Codec ID                                 : A_AC3
    Duration                                 : 1h 34mn
    Bit rate mode                            : Constant
    Bit rate                                 : 384 Kbps
    Channel(s)                               : 6 channels
    Channel positions                        : Front: L C R, Side: L R, LFE
    Sampling rate                            : 48.0 KHz
    Bit depth                                : 16 bits
    Compression mode                         : Lossy
    Stream size                              : 260 MiB (2%)
    Language                                 : Russian
    Default                                  : Yes
    Forced                                   : No

    Audio #2
    ID                                       : 3
    Format                                   : AC-3
    Format/Info                              : Audio Coding 3
    Mode extension                           : CM (complete main)
    Codec ID                                 : A_AC3
    Duration                                 : 1h 34mn
    Bit rate mode                            : Constant
    Bit rate                                 : 448 Kbps
    Channel(s)                               : 6 channels
    Channel positions                        : Front: L C R, Side: L R, LFE
    Sampling rate                            : 48.0 KHz
    Bit depth                                : 16 bits
    Compression mode                         : Lossy
    Stream size                              : 303 MiB (3%)
    Language                                 : English
    Default                                  : No
    Forced                                   : No

    Скриншоты:


    © Оформление by Ворон
    pb.wtf



  • Скачать Ограбление по-американски через торрент http://pic.kartinco.top/images/6/ordi9.jpg Скачать фильм Ограбление по-американски через торрент бесплантно в хорошем качестве Е:У Джеймса темное прошлое, но сейчас он из всех сил пытается изменить свою жизнь - встречается с красивой девушкой, устроился работать ... 9.3 10 17
    Info! Золотая раздача, скачанное не засчитывается.
    Торрент: Зарегистрирован [2015-03-19 20:50] · скачан: 394 раз
    Статус: √ проверено
    Размер: 10.66 GB
    Как cкачать? Как скачать Ограбление по-американски через торрент | qTorrent

    % Раздел Тема Автор DL S | L
    Фильмы [HD 720p, 1080p] (Хороший звук DUB, MVO) [ 6.82 GB ] Ограбление по-американски / American Heist [2014 BDRip 720p ] Ворон Скачать
    1 | 0
    Фильмы 2014 [DVDrip, WEB-DLRip, HDrip] [ 1.46 GB ] Ограбление по-американски / American Heist [2014 HDRip ] Ворон Скачать
    1 | 0

    28-11-2019 20:33  

    Отключить всю рекламу на сайте

    19-03-2015 21:20 Ограбление по-американски Скачать торрент  

    Из-за Akon'а стоит посмотреть!
    скриншот  pb.wtf



    21-03-2015 16:56 Ограбление по-американски Скачать торрент  

    RomanovStyle писал(а):

    Из-за Akon'а стоит посмотреть!

    Да? и чем он так хорош? парой трешевых фильмов и сериалом?pb.wtf



    08-11-2015 02:49 Ограбление по-американски Скачать торрент  

    трейлер очень крутой, а фильм сам слабенькийpb.wtf



      Дорогой пользователь! Огромная просьба, поблагодарите релизера, оцените раздачу и оставьте свои комментарий, если Вы скачали Ограбление по-американски через торрент бесплатно! Внесите свою лепту в развитие PiratBit!
      Комментировать посты могут только пользователи прошедшие не сложную регистрацию
      Показать сообщения:    

      Ограбление по-американски через торрент
      Скачать бесплатно Ограбление по-американски
      Ограбление по-американски скачать торрент
      Ограбление по-американски смотреть онлайн
      Cкачать фильм Ограбление по-американски бесплатно
      Ограбление по-американски скачать торрент в хорошем качестве
      Ограбление по-американски смотреть онлайн бесплатно в хорошем качестве


      Вы не можете начинать темы
      Вы не можете отвечать на сообщения
      Вы не можете редактировать свои сообщения
      Вы не можете удалять свои сообщения
      Вы не можете голосовать в опросах
      Вы не можете прикреплять файлы к сообщениям
      Вы можете скачивать файлы