Ссылка на приватное зеркало нашего сайта всего за 1$. Внимание количество ограничено!!!

2 сезон

iTunes

1 сезон

1

iTunes

iTunes

iTunes

1 сезон

RePack

30

ИГРА 18+

pack

ВАЖНО

!!Акция!!

Alien_RageХит недели

RePack

MK11
pack

Забери бонус

RePack

jed

!!Акция!!

Alien_Rage

RePack

fifa19

RePack

Assassins Creed: Odyssey

RePack

NEED FOR SPEED™ PAYBACK

4 сезон

9 сезон

Бесстыжие 9 сезон

Все сериалы

все сериалы на PB.wtf

RePack

FAR CRY 5
  

Плата по счетчику / Серии: 1-4 из 4 (Кирилл Капица) [2015 г., Боевик, детектив, триллер, DVB] pb.wtf

Плата по счетчику через торрент pb.wtf

Размер: 3.71 GB | Добавлен: 5 лет 7 мес. назад | Торрент скачан:350 раз
Скачать  

20-03-2015 14:13 Плата по счетчику Скачать торрент  

Плата по счетчикуГод выпуска: 2015
Страна: Россия Стар Медиа
Жанр: Боевик, детектив, триллер
Продолжительность: 4 х ~ 00:45:00
Перевод: Не требуется
Режиссер: Кирилл Капица
Продюссер: Юрий Минзянов, Влад Ряшин
Сценарий: Андрей Житков, Михаил Трофименко, Павел Гельман В ролях: Алексей Комашко, Анастасия Рубова, Елена Руфанова, Елена Мартыненко, Александр Кудренко, Анатолий Кондюбов, Геша Меньшиков, Александр Большаков, Александр Демич (II), Владимир Севостьянихин, Александр Устинов (II), Константин Кайнов, Юрий Елагин, Артур Литвинов, Сергей Шкарбан, Александр Тютрюмов, Самвел Мужикян, Станислав Осколков, Наталья Корольская, Анна Фомина, Игорь Алимджанов, Анита Бумагина, Эрик Кения, Ирина Коваленко (II), Олег Панин

Описание: Обычном столичном таксисту Павлу Красавченко никогда особо не везло, но события последних дней вообще выбили его из колеи и перевернули жизнь с ног на голову. Неприятности в жизни Павла начинаются с того, что родная жена, с которой они живут в законном браке уже более десяти лет, внезапно заявляет, что приняла окончательное решение и собирается подать заявление на развод. Казалось бы, ну разве могут быть еще какие "сюрпризы"? Оказывается, что это только начало. Сев в автомобиль, чтобы развеяться и заработать пару сотен рублей, таксист подбирает незнакомого мужчину, который оказывается закоренелым преступником, один вид которого уже указывает на то, что лучше было бы проехать мимо такого клиента. Уголовник с прозвищем Шуша несколько месяцев назад "отличился", когда вместе с не менее матерым и опасным подельником Костей Шампуром совершили вооруженное нападение на инкассаторов, в ходе которого и похитили огромное количество бриллиантов, денег от продажи которых могло бы с головой хватить на безбедную жизнь для парочки олигархов, не говоря уже о вчерашних уголовниках.

Качество: DVB
Формат: MPEG-TS-AVC
Видео кодек: MPEG4
Аудио кодек: MPEG Audio
Видео: MPEG4, Video (H264) 720x576 (20:11), 25fps, 2 638 Kbps
Аудио: MPEG Audio, 48000Hz, stereo, 192kbps
Релиз от: aleksan55
Скриншоты:скриншот  скриншот  скриншот  скриншот  скриншот  скриншот  скриншот  скриншот  




General
ID : 1 (0x1)
Complete name : E:\4002\Плата по счетчику\01 серия.ts
Format : MPEG-TS
File size : 955 MiB
Duration : 44mn 48s
Overall bit rate mode : Variable
Overall bit rate : 2 979 Kbps

Video
ID : 192 (0xC0)
Menu ID : 264 (0x108)
Format : AVC
Format/Info : Advanced Video Codec
Format profile : Main@L3.0
Format settings, CABAC : Yes
Format settings, ReFrames : 3 frames
Format settings, GOP : M=4, N=28
Codec ID : 27
Duration : 44mn 48s
Bit rate : 2 638 Kbps
Width : 720 pixels
Height : 576 pixels
Display aspect ratio : 16:9
Frame rate : 25.000 fps
Standard : Component
Color space : YUV
Chroma subsampling : 4:2:0
Bit depth : 8 bits
Scan type : Interlaced
Bits/(Pixel*Frame) : 0.254
Stream size : 845 MiB (89%)

Audio
ID : 193 (0xC1)
Menu ID : 264 (0x108)
Format : MPEG Audio
Format version : Version 1
Format profile : Layer 2
Codec ID : 3
Duration : 44mn 48s
Bit rate mode : Constant
Bit rate : 192 Kbps
Channel(s) : 2 channels
Sampling rate : 48.0 KHz
Compression mode : Lossy
Stream size : 61.5 MiB (6%)
Language : Russian

pb.wtf



Скачать Плата по счетчику через торрент http://pic1.kartinco.top/images/10/mb47g.jpg Скачать фильм Плата по счетчику через торрент бесплантно в хорошем качестве Описание: Обычном столичном таксисту Павлу Красавченко никогда особо не везло, но события последних дней вообще выбили его из колеи и ... 8.7 10 20
Info! Золотая раздача, скачанное не засчитывается.
Торрент: Зарегистрирован [2015-03-20 17:43] · скачан: 350 раз
Статус: √ проверено
Размер: 3.71 GB
Как cкачать? Как скачать Плата по счетчику через торрент | qTorrent

% Раздел Тема Автор DL S | L
Наши сериалы [ 7.66 GB ] Плата по счётчику / Сезон: 1 / Серии: 1-4 из 4 [2014 WEB-DL 1080p] sokol_ok Скачать
7 | 0
Наши сериалы [ 2.37 GB ] Плата по счетчику / 1-4 серии из 4 [2015 Россия SATRip) GEKADOL Скачать
1 | 0

28-11-2019 20:33  

Отключить всю рекламу на сайте

20-03-2015 17:45 Плата по счетчику Скачать торрент  

Добавил 3-4 серии!Обновите торрент!!!Всем приятных просмотров и отличного настроения!Пятница :gamer2: pb.wtf



20-03-2015 18:16 Плата по счетчику Скачать торрент  

Соломон Немни писал(а):

[img] [2015 г., Боевик, детектив, триллер, DVB][/img]
Точно триллер тут есть или только одно пиф-паф тупое..?

хзpb.wtf



20-03-2015 18:50 Плата по счетчику Скачать торрент  

у меня моники все квадратные толькоpb.wtf



20-03-2015 19:16 Плата по счетчику Скачать торрент  

Аудио: MPEG Audio, 48000Hz, stereo, 192kbps там нет 5.1 и 3.1 ---такое кино только в стерео:2 динамика и всеpb.wtf



20-03-2015 22:34 Плата по счетчику Скачать торрент  

sposibo pb.wtf



21-03-2015 18:16 Плата по счетчику Скачать торрент  

я от этого в Шоке:сколько хотят от малого,как так?От такого малого размера?Точно говорят когда родился такой,другой здохнул...Я тачки 18 лет озвучиваю,видел столько халявщиков,из дерьма конфету хотят слепить.....И тут звук не тот,как вы себе женщин подбираете????Этот фильм для обычного просмотра,не более!Не надо выжимать все соки!А мерин свой хоть салярой или мочой заправляй,не в обиду:С таким занудой -как только женщины спят? Я этот фильм не риповал,только скачал и залил,ко мне какие притензии?Я должен скачать,посмотреть и оценить,а потом уже залить?Запомни:Я в этой жизни никому не должен!Как эти нытики могут достать....Самrip предоставьте с хорошей озвучкой пусть протасчится...Crazy.... :paratrooper: Чего еще при таком отнощении:Ешь не красную икру,а ее подобие...,бабу тебе не настоящую,а резиновую....,машину-не мерседес,а запорожец.....,джинсы от самого задрипаного обосаного бомжа......,колбасу с огромным содержанием объедков.....)))))отвел душу-полегчало,жаль не могу в лицо посмотреть и со всеми вытекающими....е ....киноманpb.wtf



05-04-2015 18:57 Плата по счетчику Скачать торрент  

Фильм класный,весь фильм держит в напряженииpb.wtf



    Дорогой пользователь! Огромная просьба, поблагодарите релизера, оцените раздачу и оставьте свои комментарий, если Вы скачали Плата по счетчику через торрент бесплатно! Внесите свою лепту в развитие PiratBit!
    Комментировать посты могут только пользователи прошедшие не сложную регистрацию
    Показать сообщения:    

    Плата по счетчику через торрент
    Скачать бесплатно Плата по счетчику
    Плата по счетчику скачать торрент
    Плата по счетчику смотреть онлайн
    Cкачать фильм Плата по счетчику бесплатно
    Плата по счетчику скачать торрент в хорошем качестве
    Плата по счетчику смотреть онлайн бесплатно в хорошем качестве


    Вы не можете начинать темы
    Вы не можете отвечать на сообщения
    Вы не можете редактировать свои сообщения
    Вы не можете удалять свои сообщения
    Вы не можете голосовать в опросах
    Вы не можете прикреплять файлы к сообщениям
    Вы можете скачивать файлы