Ссылка на приватное зеркало нашего сайта всего за 1$. Внимание количество ограничено!!!

2 сезон

iTunes

1 сезон

1

2 сезон

2 сезон

iTunes

1 сезон

RePack

30

Новинка

ВАЖНО

ИГРА 18+

pack

RePack

MK11
pack

Забери бонус

RePack

jed

!!Акция!!

Alien_Rage

RePack

fifa19

RePack

Assassins Creed: Odyssey

RePack

NEED FOR SPEED™ PAYBACK

4 сезон

9 сезон

Бесстыжие 9 сезон

Все сериалы

все сериалы на PB.wtf

RePack

FAR CRY 5
  

Трейсеры / Tracers (Даниэль Бенмаур ) [2015, боевик, WEB-DLRip, Любительский (двухголосый) [Пиратская студия дубляжа] pb.wtf

Трейсеры через торрент pb.wtf

Размер: 1.37 GB | Добавлен: 5 лет 8 мес. назад | Торрент скачан:364 раза
Скачать  

20-03-2015 20:40 Трейсеры Скачать торрент  


Трейсеры / Tracers


ИНФОРМАЦИЯ:
Год выпуска:2015
Страна: США
Жанр: боевик
Продолжительность: 01:34:05
Перевод: Любительский (двухголосый) [Пиратская студия дубляжа]
Режиссер: Даниэль Бенмаур

В Ролях:


Тэйлор Лотнер (Cam), Мари Авгеропулос (Nikki), Рафи Гаврон (Dylan), Адам Рэйнер (Miller), Сэм Медина (Hu), Даг Драклер (Rough man), Лучиано Акуна мл. (Tate), Доа Моа (Skinny Jeans), Эндрю Элвис Миллер (Messenger #2), Тил Кейт (Dancer), Скотт Джонсен (Detective), Амирах Ванн (Angie)

ОПИСАНИЕ:
Фильм расскажет историю парня по имени Кэм - велокурьера, находящегося в долгу перед некоей преступной группировкой. В один из дней он сбивает на своем велосипеде сексуальную незнакомку, которая соблазняет его и увлекает в мир паркура.

  • Мировая премьера:15 января 2015

    ТЕХ.ДАННЫЕ:
    Качество: WEB-DLRip
    Формат: AVI
    Видео кодек: XviD
    Аудио кодек: AC3
    Видео: XviD, 720x304 (2.35:1), 1815 kbps, 24 fps, 0,306 bpp
    Аудио: AC3 / 5.1 / 48 kHz / 384 kbps / 16 bit



    Код:

    General
    Complete name                            : D:\Торенты\Tracers.2015.P.WEB-DLRip.avi
    Format                                   : AVI
    Format/Info                              : Audio Video Interleave
    File size                                : 1.37 GiB
    Duration                                 : 1h 34mn
    Overall bit rate                         : 2 083 Kbps
    Writing application                      : VirtualDubMod 1.5.10.3 | www.virtualdub-fr.org || (build 2550/release)
    Writing library                          : VirtualDubMod build 2550/release

    Video
    ID                                       : 0
    Format                                   : MPEG-4 Visual
    Format profile                           : Advanced Simple@L5
    Format settings, BVOP                    : 2
    Format settings, QPel                    : No
    Format settings, GMC                     : No warppoints
    Format settings, Matrix                  : Default (MPEG)
    Muxing mode                              : Packed bitstream
    Codec ID                                 : XVID
    Codec ID/Hint                            : XviD
    Duration                                 : 1h 34mn
    Bit rate                                 :1815 Kbps
    Width                                    : 720 pixels
    Height                                   : 304 pixels
    Display aspect ratio                     : 2.35:1
    Frame rate                               : 24.000 fps
    Color space                              : YUV
    Chroma subsampling                       : 4:2:0
    Bit depth                                : 8 bits
    Scan type                                : Progressive
    Compression mode                         : Lossy
    Bits/(Pixel*Frame)                       : 0.306
    Stream size                              : 1.06 GiB (77%)
    Writing library                          : XviD 73

    Audio
    ID                                       : 1
    Format                                   : AC-3
    Format/Info                              : Audio Coding 3
    Mode extension                           : CM (complete main)
    Codec ID                                 : 2000
    Duration                                 : 1h 34mn
    Bit rate mode                            : Constant
    Bit rate                                 : 384 Kbps
    Channel(s)                               : 6 channels
    Channel positions                        : Front: L C R, Side: L R, LFE
    Sampling rate                            : 48.0 KHz
    Bit depth                                : 16 bits
    Compression mode                         : Lossy
    Stream size                              : 258 MiB (18%)
    Alignment                                : Split accross interleaves

    Скриншоты:


    © Оформление by Ворон
    pb.wtf



  • Скачать Трейсеры через торрент http://pic.kartinco.top/images/6/ordi9.jpg Скачать фильм Трейсеры через торрент бесплантно в хорошем качестве Е:Фильм расскажет историю парня по имени Кэм - велокурьера, находящегося в долгу перед некоей преступной группировкой. В один из дней он ... 9 10 7
    Торрент: Зарегистрирован [2015-03-20 20:40] · скачан: 364 раз
    Статус: T временная
    Размер: 1.37 GB
    Как cкачать? Как скачать Трейсеры через торрент | qTorrent

    % Раздел Тема Автор DL S | L
    T Фильмы (WEB-DL 720p, 1080p) [ 3.11 GB ] Трейсеры / Tracers [2015 WEB-DL 720p Любительский [Пиратская студия дубляжа] Ворон Скачать
    1 | 0
    T Фильмы 2015 (Звук TS, Cam, VO, DVO) [ 742 MB ] Трейсеры / Tracers [2015 WEBRip Любительский ] _KaisiK_ Скачать
    1 | 0
    Фильмы без перевода [ 709 MB ] Трейсеры / Tracers [2015 DVDRip] [ENG] killermax2013 Скачать
    1 | 0

    28-11-2019 20:33  

    Отключить всю рекламу на сайте

      Дорогой пользователь! Огромная просьба, поблагодарите релизера, оцените раздачу и оставьте свои комментарий, если Вы скачали Трейсеры через торрент бесплатно! Внесите свою лепту в развитие PiratBit!
      Комментировать посты могут только пользователи прошедшие не сложную регистрацию
      Показать сообщения:    

      Трейсеры через торрент
      Скачать бесплатно Трейсеры
      Трейсеры скачать торрент
      Трейсеры смотреть онлайн
      Cкачать фильм Трейсеры бесплатно
      Трейсеры скачать торрент в хорошем качестве
      Трейсеры смотреть онлайн бесплатно в хорошем качестве


      Вы не можете начинать темы
      Вы не можете отвечать на сообщения
      Вы не можете редактировать свои сообщения
      Вы не можете удалять свои сообщения
      Вы не можете голосовать в опросах
      Вы не можете прикреплять файлы к сообщениям
      Вы можете скачивать файлы